<?xml version="1.0" standalone="no"?>
<!DOCTYPE svg PUBLIC "-//W3C//DTD SVG 1.1//EN" "http://www.w3.org/Graphics/SVG/1.1/DTD/svg11.dtd" >
<svg xmlns="http://www.w3.org/2000/svg" xmlns:xlink="http://www.w3.org/1999/xlink" version="1.1">
<metadata>
Created by FontForge 20190801 at Sun Oct 03 00:42:07 2021
 By ashkhen.baghdasaryan
</metadata>
<defs>
<font id="icomoon" horiz-adv-x="1024" >
  <font-face 
    font-family="icomoon"
    font-weight="400"
    font-stretch="normal"
    units-per-em="1024"
    panose-1="0 0 0 0 0 0 0 0 0 0"
    ascent="960"
    descent="-64"
    x-height="795.5"
    cap-height="875"
    bbox="-2 -64.0952 1025 961"
    underline-thickness="0"
    underline-position="0"
    unicode-range="U+0001-FFFD"
  />
<missing-glyph 
 />
    <glyph glyph-name=".notdef" unicode="&#xfffd;" 
 />
    <glyph glyph-name="glyph1" horiz-adv-x="0" 
d="M0 0v0v0v0z" />
    <glyph glyph-name="glyph1" horiz-adv-x="0" 
d="M0 0v0v0v0z" />
    <glyph glyph-name="nonmarkingreturn" horiz-adv-x="341" 
 />
    <glyph glyph-name="uni0001" horiz-adv-x="0" 
d="M0 0v0v0v0z" />
    <glyph glyph-name="space" unicode=" " horiz-adv-x="512" 
d="M0 0v0v0v0z" />
    <glyph glyph-name="parenleft" unicode="(" 
d="M472 102q-2 2 -3.5 6t-3.5 6t-4 6t-4 5q-16 25 -19 55q-15 108 46 142q2 0 6 2t6 2t7.5 2t7.5 2q12 4 25 4h6h27l39 -8q13 9 27 15q38 22 81 24q37 0 65 -28t36 -92q2 -15 2 -30q0 -68 -47 -123.5t-114 -66.5q-13 -4 -27 -4h-4q-41 0 -86 24t-69 57zM305 76
q-56 9 -95.5 56t-39.5 103q0 15 3 29v4v4q11 62 41.5 89t67.5 27h2q39 0 74 -19q0 2 2 5.5t2 5.5t2 6t2 6q111 239 280 304q-39 9 -73 28q-42 21 -76.5 54t-48.5 57.5t-9.5 31t33.5 8.5t76.5 -7.5t89.5 -32.5q31 -17 66.5 -50t55.5 -62l51 24q4 2 9 2q10 0 15 -7q1 -4 2 -7
l16 -54q3 -8 -0.5 -15.5t-6.5 -7.5l-86 -8q-29 -10 -59.5 -37t-43.5 -55q-11 -25 -19 -61.5t-8 -63.5q0 -25 4 -49q-13 -9 -27 -15q-3 0 -14.5 1.5t-19.5 1.5q-4 29 -4 57q0 33 9 77.5t21 74.5q2 3 3 6t2 5t3 4q-46 -35 -96 -97.5t-75 -115.5l-3 -6t-4 -6t-3 -5t-3 -3
q16 -2 31 -8q-13 -8 -23 -20q-15 -20 -25.5 -53t-10.5 -59q0 -23 5 -46q7 -41 27 -78q-18 -11 -45 -19t-47 -8q-3 -1 -6 -1q-13 0 -25 5h1z" />
    <glyph glyph-name="parenright" unicode=")" 
d="M576 832q-159 0 -271.5 -112.5t-112.5 -271.5h-128l166 -166l3 -6l171 171h-128v1q0 123 87.5 210.5t211 87.5t211 -87.5t87.5 -211t-87.5 -211t-211.5 -87.5q-51 0 -112.5 25.5t-97.5 61.5l-59 -59q46 -47 125.5 -80t145.5 -33q105 0 193.5 51.5t139.5 140t51 192.5
t-51 192.5t-139.5 140t-193.5 51.5zM533 619v-214l183 -108l31 52l-150 88v182h-64z" />
    <glyph glyph-name="asterisk" unicode="*" 
d="M939 799v33h-205v-67h136q-2 -39 -13 -92.5t-25 -90.5q-22 -73 -89.5 -137t-140.5 -82v-67q102 19 177 86t117 177q18 46 30.5 113.5t12.5 117.5v9zM422 361q-74 16 -141.5 79t-88.5 136q-30 90 -38 183h136v69h-205v-34v-6q0 -51 12.5 -120t30.5 -116q42 -110 117 -177
t177 -86v72zM563 190v241q75 22 123 97.5t48 174.5v7q0 24 -4 47h-423q-4 -22 -4 -44v-9q0 -99 48 -174t123 -97v-243q-39 -14 -76.5 -51t-51.5 -75h345q-15 37 -52.5 73.5t-75.5 51.5v1z" />
    <glyph glyph-name="plus" unicode="+" 
d="M677 349h-35l-12 14q28 33 48.5 87.5t20.5 98.5q0 118 -84 201.5t-202 83.5t-201.5 -83.5t-83.5 -202t83.5 -202t201.5 -83.5q44 0 98.5 20t87.5 49l12 -12v-35l220 -221l65 65zM413.5 349q-81.5 0 -139.5 58t-58 139.5t58 139.5t139.5 58t139.5 -58t58 -139.5
t-58 -139.5t-139.5 -58z" />
    <glyph glyph-name="comma" unicode="," 
d="M427 107h-214v341h-128l427 384l427 -384h-128v-341h-214v256h-170v-256z" />
    <glyph glyph-name="period" unicode="." 
d="M205 747h614q32 0 54.5 -22.5t22.5 -54.5v-465q0 -32 -22.5 -54.5t-53.5 -22.5h-615q-32 0 -54.5 22.5t-22.5 53.5v462v1q0 31 22.5 54.5t54.5 25.5zM205 666v-461h269v461h-269zM819 205v461h-47q8 -21 9 -43q-10 -33 -26 -64l-89 -98h128v-47h-201v38q115 124 124 137
q25 77 -26 77q-21 0 -31.5 -13t-10.5 -26v-13h-60q1 27 13 52h-47v-461h98v34h38q14 2 24 13t10 25q1 3 1 5q0 12 -9 22t-21 12h-4.5h-4.5q-4 0 -9 -1t-13.5 -3.5t-14.5 -10.5t-6 -19h-59q0 3 0.5 8.5t5.5 19.5t14.5 24.5t29.5 19.5t47.5 9t47.5 -8t28.5 -19.5t13 -22.5
t4.5 -19l1 -8q-1 -19 -13.5 -38t-29.5 -26l21 -13zM393 286h-60v222l-68 -22v47l119 43h4v-290h5z" />
    <glyph glyph-name="slash" unicode="/" 
d="M781 747h102q13 0 13 -14v-655q0 -14 -13 -14h-742q-13 0 -13 14v382q0 14 13 14h102q13 0 13 -14v-337q0 -13 13 -13h60q12 0 12 13v200q0 14 13 14h103q12 0 12 -14v-200q0 -13 13 -13h60q13 0 13 13v428q0 14 12 14h103q13 0 13 -14v-428q0 -13 12 -13h60q13 0 13 13
v610q0 5 4 9t9 5z" />
    <glyph glyph-name="zero" unicode="0" 
d="M692 652q-19 0 -32 13t-13 32v90q1 18 14 31t31 13t31 -13t14 -31v-90q0 -19 -13 -32t-32 -13zM813 742q35 0 59 -24t24 -59v-100h-768v100q0 35 24 59t59 24h31v-45q0 -37 26.5 -63.5t63.5 -26.5t63.5 26.5t26.5 63.5v45h180v-45q0 -37 26.5 -63.5t63.5 -26.5t63.5 26.5
t26.5 63.5v45h31zM332 652q-19 0 -32 13t-13 32v90q1 18 14 31t31 13t31 -13t14 -31v-90q0 -19 -13 -32t-32 -13zM128 514h768v-367q0 -35 -24 -59t-59 -24h-602q-35 0 -59 24t-24 59v367z" />
    <glyph glyph-name="one" unicode="1" 
d="M844 420q-1 -97 -48.5 -179.5t-130 -130t-180 -47.5t-180 47.5t-130 130t-47.5 180t47.5 180t130 130t180.5 47.5v-358h358zM571 875q98 0 180 -48t130 -130.5t48 -179.5h-358v358z" />
    <glyph glyph-name="two" unicode="2" 
d="M329 832h366q30 -1 51.5 -23t21.5 -52v-2v-614v-2q0 -30 -21.5 -52t-51.5 -23h-366q-30 1 -51.5 23t-21.5 52v2v614v2q0 30 21.5 52t51.5 23zM329 755v-153h366v153h-366zM329 525v-77h73v77h-73zM475 525v-77h74v77h-74zM622 525v-77h73v77h-73zM329 371v-77h73v77h-73z
M475 371v-77h74v77h-74zM622 371v-77h73v77h-73zM329 218v-77h73v77h-73zM476 218v-77h73v77h-73zM622 218v-77h73v77h-73z" />
    <glyph glyph-name="three" unicode="3" 
d="M139 238q-20 35 -35.5 88t-18.5 94v28q1 97 49 188.5t129.5 154t177.5 80.5h4q10 0 33 2t34 2q119 -1 234.5 -79t160.5 -188q13 -31 22.5 -77t9.5 -80v-3q-1 -115 -58 -213.5t-155 -155.5t-214 -58q-103 1 -212.5 64.5t-160.5 152.5zM174 221q48 -19 100 -22
q23 -24 60.5 -51t67.5 -41q0 -7 1.5 -26.5t1.5 -30.5h4q9 0 18 -4q-7 30 -11 61q25 6 56 23t51 34q84 -11 168 -11h17l14 -53q50 29 101 88.5t73 113.5q-9 0 -34 -1.5t-33 -1.5q-8 25 -24 63t-29.5 67.5t-14.5 32.5q12 27 20 67t8 70v2h107q-2 3 -3.5 8.5t-3.5 9.5h-107
q-21 21 -55.5 46t-61.5 39q-16 63 -50 117l36 7q-26 11 -64.5 18t-66.5 7h-8q-4 1 -9 1q-22 0 -44 -4q26 -4 79 -16t59 -13q32 -55 47 -117q-27 -10 -60.5 -32t-53.5 -43q-38 11 -92 19.5t-93 9.5q-27 66 -32 85q7 8 64 57q43 31 71 53q-17 -3 -46 -10q-56 -40 -103 -89
q-29 -8 -62 -30t-52 -45q-15 -22 -25.5 -57t-10.5 -62v-5h-3q-22 -38 -39 -78v-54q18 60 49 114l75 -25q1 -3 29 -74t42 -100q-25 -58 -35 -121q-27 2 -54 7l-32 11q-15 7 -28 18q11 -16 21 -32zM530 181q-6 15 -23.5 64.5t-22.5 63.5q16 19 63 82.5t50 67.5l143 -7
q39 -80 67 -164q-44 -62 -92 -117h-4q-91 0 -181 10zM320 345q-41 85 -71 174l92 121q40 -1 95.5 -9t93.5 -19q31 -70 53 -143q-101 -135 -114 -149q-90 10 -149 25z" />
    <glyph glyph-name="four" unicode="4" 
d="M379 77l-228 -19h-6q-19 0 -34 13.5t-17 32.5v5l-51 469v5q0 19 13.5 34t32.5 17q2 1 5 1l88 6l-31 -462q-1 -4 -1 -8q0 -36 25.5 -63t60.5 -30l3 -1h140zM347 153l253 -38q-12 -6 -26 -6h-5l-323 19h-2.5h-2.5q-19 2 -32.5 17t-13.5 35v5l32 475v2.5v2.5q2 19 17 32.5
t34 13.5h6l63 -7l-76 -443q-1 -4 -1 -8q-1 -5 -1 -11q0 -32 23 -58t55 -31zM455 229l259 -76q-16 -13 -37 -13q-4 0 -7 1l-317 50q-2 1 -5 1q-16 4 -28 19t-12 32q0 6 1 12l76 475q0 2 1 5q4 17 19 28.5t32 11.5q6 0 11 -1l64 -6l-121 -418q-1 -4 -2 -7q-3 -12 -3 -24
q0 -30 20 -56t49 -34zM980 679l-139 -462q-5 -16 -20.5 -27.5t-32.5 -11.5q-5 0 -10 1l-311 88q-16 6 -27.5 21.5t-11.5 32.5q0 5 1 10l140 462q5 16 20.5 27.5t32.5 11.5q5 0 10 -1l310 -89q17 -5 28 -20.5t11 -32.5q0 -5 -1 -10zM790 514h-6q8 4 13.5 13.5t5.5 17.5v1
q7 13 7 28q0 16 -10 32.5t-25 24.5l-10 4q-12 4 -24 4q-19 0 -38 -12.5t-27 -29.5q-6 -16 -6 -32v-6q-12 4 -24 4q-19 0 -38 -12.5t-27 -29.5q-7 -14 -7 -30q0 -15 9.5 -30.5t22.5 -23.5q6 -3 13 -5q12 -4 25 -4q21 0 39 10l-26 -57l19 -6l26 51q4 -15 17 -28t27 -17
q12 -4 24 -4q19 0 38 12.5t27 29.5q3 12 3 23q0 22 -14 43t-34 29z" />
    <glyph glyph-name="five" unicode="5" 
d="M927 607q9 -15 9 -32q0 -14 -8 -29.5t-19 -22.5q-247 -167 -254 -169t-15 -2q-13 0 -27.5 8t-21.5 19l-157 241q-9 15 -9 33q0 6 1 12q2 10 9.5 21.5t15.5 16.5l236 161q9 6 18 9q8 2 15 2q13 0 27.5 -8t21.5 -19zM567 611v1q15 10 15 28q0 11 -6 20q-10 16 -29 16
q-10 0 -19 -6q-15 -11 -15 -30q0 -10 5 -19q11 -16 29 -16q11 0 20 6zM673 448l2 1q14 11 14 29q0 10 -6 19q-10 16 -29 16q-11 0 -20 -6q-15 -11 -15 -29q0 -11 6 -20q10 -16 29 -16q10 0 19 6zM727 720q15 11 15 29q0 11 -6 20q-10 15 -28 15q-11 0 -20 -6
q-15 -10 -15 -29q0 -11 6 -20q10 -15 29 -15q10 0 19 6zM834 557q15 11 15 29q0 11 -6 20q-10 16 -29 16q-10 0 -19 -6q-15 -11 -15 -30q0 -10 6 -19q10 -16 28 -16q11 0 20 6zM404 493q7 1 15 1q19 0 36 -13t21 -32l71 -279v-1q2 -8 2 -15q0 -19 -13 -36t-32 -22l-273 -73
h-1q-7 -2 -15 -2q-19 0 -35.5 13.5t-21.5 32.5l-71 280q-2 8 -2 15q0 20 13 37t32 22zM257 104h1q10 3 18 13t8 22q0 4 -1 8q-3 12 -13 19.5t-21 7.5q-5 0 -9 -1q-11 -2 -18.5 -12.5t-7.5 -21.5q0 -5 1 -9q2 -11 12 -19t22 -8q4 0 8 1zM209 294q11 3 19 13t8 22q0 4 -1 8
q-3 11 -13 19t-21 8q-5 0 -9 -1q-11 -3 -18.5 -13t-7.5 -22q0 -4 1 -8q2 -12 12 -19.5t22 -7.5q4 0 8 1zM328 218q11 3 18.5 13t7.5 22q0 4 -1 8q-2 11 -12 19t-22 8q-4 0 -8 -1q-11 -3 -19 -13t-8 -22q0 -4 1 -8q3 -11 13 -19t21 -8q5 0 9 1zM443 153h1q10 3 18 13t8 22
q0 4 -1 9q-3 11 -13 19t-21 8q-5 0 -9 -1q-11 -3 -18.5 -13.5t-7.5 -21.5q0 -4 1 -9q2 -11 12 -19t22 -8q4 0 8 1zM395 343q11 3 19 13t8 22q0 4 -1 8q-3 11 -13 19t-21 8q-5 0 -9 -1q-11 -3 -18.5 -13t-7.5 -22q0 -4 1 -8q2 -11 12 -19t22 -8q4 0 8 1z" />
    <glyph glyph-name="six" unicode="6" horiz-adv-x="932" 
d="M828 281zM325 436q0 19 13.5 32.5t32.5 13.5h453q19 0 32 -13.5t13 -32.5v-181q0 -19 -13 -32t-32 -13h-453q-19 0 -32.5 13t-13.5 32v181zM365 413q0 -10 7.5 -17.5t17.5 -7.5h1h1q11 1 18 8.5t7 17.5q0 11 -7.5 19t-18.5 8t-18.5 -8t-7.5 -19v-1zM531 439h-2
q-10 0 -17 -7.5t-7 -17.5t7.5 -17.5t17.5 -7.5h1h1.5h1.5q27 7 16 13q-62 39 7 12q10 -4 -7 18q-7 7 -18 7h-1zM364 280v1q1 -11 8.5 -18t17.5 -7h1h1q11 0 18 8t7 18q0 11 -7.5 18.5t-18.5 7.5t-19 -7.5t-8 -18.5v-2zM531 306h-1q-11 0 -18.5 -7.5t-7.5 -17.5
q0 -11 7.5 -18t18 -7t17.5 7t7 18q0 10 -7 17t-16 8zM759 346q0 10 -7.5 17.5t-18.5 7.5h-2q-10 -1 -17.5 -8.5t-7.5 -17.5q0 -11 8 -19t18.5 -8t18.5 8t8 19v1zM603 452h-12q-1 0 -1 -2v-209q0 -1 1 -1h12q2 0 2 1v209q0 2 -2 2zM608 587q0 -19 -13 -32t-32 -13h-453
q-19 0 -32 13t-13 32v181q0 19 13 32.5t32 13.5h453q19 0 32 -13.5t13 -32.5v-181zM569 611q0 10 -7.5 17.5t-18.5 7.5h-2q-10 -1 -17.5 -8.5t-7.5 -18.5t8 -18.5t18.5 -7.5t18.5 7.5t8 18.5v2zM403 585h1q10 0 17 7.5t7 16.5q0 11 -7 18t-18 7h-2h-2q-9 0 -15.5 -7.5
t-6.5 -17.5t7 -17.5t18 -7.5zM569 743q0 10 -7.5 17.5t-17.5 7.5h-1h-2q-10 -1 -17.5 -8.5t-7.5 -17.5q0 -11 8 -19t19 -8t18.5 8t7.5 19v1zM403 718h1q10 0 17.5 7t7.5 18q0 10 -7 17.5t-17.5 7.5t-17.5 -7.5t-7 -17.5t6.5 -17.5t16.5 -7.5zM293 611q0 10 -7.5 17.5
t-17.5 7.5h-1h-2q-10 -1 -17 -8.5t-7 -18.5t7.5 -18.5t18.5 -7.5t18.5 7.5t7.5 18.5v2zM127 585h2q10 0 17 7t7 17q0 11 -7.5 18t-17.5 7h-1.5h-1.5h-1q-10 0 -17 -7.5t-7 -17.5t7 -17.5t18 -7.5q1 0 2 1zM293 743v0q0 10 -7.5 17.5t-17.5 7.5h-1h-2q-10 -1 -17 -8.5
t-7 -17.5q0 -11 7.5 -19t18.5 -8t18.5 8t7.5 19v1zM127 718h2h1q10 1 16.5 8t6.5 17t-7 17.5t-18 7.5h-1h-2q-9 -1 -16 -8t-7 -17q0 -11 7 -18t18 -7zM175 678q0 -11 7.5 -18t17.5 -7h1h1q11 0 18 8t7 18q0 11 -7.5 18.5t-18.5 7.5t-18.5 -7.5t-7.5 -18.5v-1zM331 572h11
q2 0 2 1v1v208q0 2 -2 2h-11q-2 0 -2 -2v-209q0 -1 2 -1z" />
    <glyph glyph-name="seven" unicode="7" 
d="M941 687q17 -6 28.5 -22.5t11.5 -33.5q0 -6 -1 -12l-122 -454v-1q-5 -15 -19 -25.5t-30 -10.5q-7 0 -14 2l-217 59q16 10 23 28q12 20 12 44q0 14 -4 27l-75 280l44 162v1q4 15 18.5 26t30.5 11q7 0 14 -2zM708 252l102 387l-39 12q-7 -15 -23.5 -25.5t-32.5 -10.5
q-12 0 -23 4l-12 -43l48 -12l-79 -296zM380 766q3 0 5 1q5 1 11 1q16 0 30 -11t17 -27l123 -454v-1q2 -6 2 -13q0 -16 -11 -30.5t-27 -18.5l-300 -79h-1q-6 -2 -13 -2q-16 0 -30.5 11t-18.5 26l-122 454l-1 2q-1 6 -1 13q0 16 11 30t26 19zM313 300l-4 4q-5 20 7.5 50.5
t28.5 59.5t25.5 70.5t-1.5 83.5q-31 98 -119 75t-63 -122l12 -40l59 16l-12 44q-12 41 20 47q17 3 27.5 -4t15.5 -32q9 -30 3.5 -60t-18.5 -52t-25.5 -49t-18 -52.5t3.5 -62.5l12 -47l177 47l-15 55z" />
    <glyph glyph-name="eight" unicode="8" 
d="M410 194v183h105v-183h-105zM462 335q-13 -28 -34 -50q23 -20 34 -49q12 28 34 49q-21 22 -34 50zM595 194v183h106v-183h-106zM648 335q-13 -28 -34 -50q23 -20 34 -49q12 28 34 49q-22 22 -34 50zM948 551q14 0 23.5 -10t9.5 -24v0q0 -13 -10 -23t-23 -10q-9 0 -18 6
t-13 14h-12v-213q0 -6 -4 -10t-9 -4h-42v-41q0 -6 -4 -10t-9 -4h-35v-103q0 -5 -3.5 -9t-9.5 -4h-648q-5 0 -9 3.5t-4 9.5v333q0 6 4 9.5t9 3.5h648q6 0 9.5 -4t3.5 -9v-93h35q5 0 9 -4t4 -9v-42h28v213q0 6 4 10t10 4h25q4 8 13 14t18 6zM357 193v185q0 11 -8 18.5t-19 7.5
h-108q-10 0 -17.5 -7.5t-7.5 -18.5v-185q0 -11 7.5 -18.5t18.5 -7.5h107q11 0 18.5 7.5t8.5 18.5zM542 193v186q0 10 -7.5 17.5t-18.5 7.5h-108q-10 0 -18 -7.5t-8 -18.5v-185q0 -11 8 -18.5t18 -7.5h108q11 0 18.5 7.5t7.5 18.5zM728 193v185q0 11 -7.5 18.5t-18.5 7.5
h-108q-11 0 -18.5 -7.5t-7.5 -18.5v-185q0 -11 8 -18.5t18 -7.5h108q10 0 18 7.5t8 18.5zM823 249v83h-20v-83h20zM193 605l-28 27q-2 2 -3 5v1v1q0 6 7 7l40 6l17 36q1 3 4 4h1h2q6 0 7 -5l18 -35l39 -6q5 -1 7 -6v-2q0 -3 -2 -6l-29 -27l7 -39v-2q0 -2 -1 -4q-2 -4 -6 -4
q-2 0 -4 1l-36 19l-35 -19q-2 -1 -4 -1l-1 1h-1q-5 1 -5 7v1zM413 639l-49 48q-3 4 -4 9v1q0 12 12 13l67 10l31 62q2 4 6 6h1q2 1 5 1q9 0 12 -7l30 -62l68 -9q12 -2 12 -14q0 -6 -4 -10l-49 -48l12 -67v-2q0 -4 -2 -7q-4 -7 -12 -7q-3 0 -6 2l-61 32l-60 -32q-3 -2 -6 -2
q-2 0 -3 1q-11 1 -11 13v2zM692 605l-28 28q-2 2 -2 5v1q0 7 7 7l39 6l17 36q1 3 4 4h1h2q6 0 7 -5l18 -35l40 -6q5 -1 6 -6v-2q0 -4 -2 -6l-28 -27l6 -40v-1q0 -2 -1 -4q-2 -4 -6 -4q-2 0 -4 1l-36 19l-35 -19q-2 -1 -3 -1t-2 1q-6 1 -6 7v1zM224 194v183h105v-183h-105z
M276 335q-12 -28 -34 -50q24 -20 34 -49q13 28 35 49q-22 22 -35 50z" />
    <glyph glyph-name="nine" unicode="9" 
d="M843 21h-667q-34 0 -11 83q25 93 82 169q46 61 83 60h47l-5.5 -33t-5.5 -34t-4 -32.5t-2 -32.5t2 -29.5t7.5 -27t14.5 -22t21.5 -18.5t31.5 -11.5t42 -5.5q11 -1 17.5 22.5t7.5 47.5l1 24q3 -94 24 -94q24 0 43.5 4t33 10t23 18t15.5 22t8 28t2.5 29.5t-1.5 34t-4 35
l-6 37.5q-3 18 -4 28h52q59 -2 118 -101q52 -87 58 -160q4 -51 -24 -51zM550 869q63 -15 110.5 -50t71.5 -78t27.5 -93.5t-14.5 -96.5t-60.5 -87t-105.5 -66q41 47 71 102q7 21 7 42q0 36 -23.5 69t-57.5 44q-104 27 -115 91q-15 -19 -26 -41q-9 -14 -13 -29l-8 -32
q-4 -19 -4 -38q0 -12 1 -24q6 -33 19 -63q-12 9 -24.5 26t-17.5 31q-6 21 -6 42q0 15 3 29q3 16 10 31q-86 -133 27 -264q-127 55 -147 147q-6 27 -6 54q0 42 14 82q6 21 23 45.5t35 37.5q12 7 26 11q14 1 28 5q18 30 54 53t70 26q16 -1 31 -6zM597 341q-18 -12 -45.5 -20.5
t-49.5 -8.5q-23 0 -53 10t-49 24l-2 2q-3 3 -3 7t3 7q3 2 8 8.5t8 9.5q3 4 9 4q3 0 6 -1h3q32 -18 68 -18q27 0 52 10l16 8h11q2 0 7 -5q0 -3 6 -8q1 -2 3.5 -5.5t4.5 -5.5q0 -1 1 -1q2 -3 2 -7q0 -7 -6 -10zM539 451q-7 -10 -21 -17t-26 -7q-19 0 -35 12q-7 5 -12 12v5
q3 0 8 5q11 8 24 11h1q4 0 6 -3q2 0 3 -1.5t3 -1.5t5 3q1 0 3.5 1.5t4.5 1.5q13 -2 23 -11q5 -5 8 -5q10 -5 5 -5zM511 448h-1q-2 0 -2 2v1q-1 0 -2.5 1t-2.5 1h-16q-3 0 -5 -2q-3 0 -3 -3q8 -3 16 -3t15 3h1z" />
    <glyph glyph-name="colon" unicode=":" 
d="M402 604q-12 0 -22.5 8.5t-12.5 20.5q-1 3 -1 7v1q0 12 8.5 22.5t20.5 12.5l178 35h1q1 0 2 -1q2 -1 2 -3v-65q0 -4 -4 -4l-165 -34h-7zM574 752h-2l-164 52q-15 4 -22 17q-4 8 -4 17q0 6 2 11q3 11 13 18.5t21 7.5q6 0 12 -2l157 -49q2 -1 3 -3v-1q0 -2 -1 -3
q-11 -14 -11 -32v-29q0 -2 -2 -3q-1 -1 -2 -1zM560 534q-14 0 -24 10.5t-10 24.5v1v2q0 15 10 25t24 10h14q4 -1 4 -5v-10q0 -19 14 -33t34 -14q16 0 29.5 12t15.5 28q1 3 4 4h1q3 0 4 -3q4 -8 4 -17v-1q0 -14 -10 -24t-24 -10h-90zM573 440q-15 0 -25.5 11t-10.5 25
q0 15 10.5 25.5t25.5 11.5h101q15 0 25.5 -11t10.5 -25v-1q0 -15 -10.5 -25.5t-25.5 -10.5h-101zM727 440q-3 0 -4 2q-1 1 -1 2.5t1 2.5q8 13 8 29v1q0 15 -10.5 30.5t-24.5 22.5q-2 0 -3 2v2t1 2q11 16 11 36q0 14 -8.5 28t-20.5 20q-3 1 -3 4v39q0 3 3 4q1 1 2 1t3 -2
q22 -21 60.5 -38.5t69.5 -20.5h1q9 0 10 10q0 4 -3 7q-3 4 -7 4q-35 5 -76.5 27.5t-64.5 49.5v1l-1 1q-3 4 -8 4v0h-4q-7 -3 -7 -11v-107q0 -11 -7.5 -18.5t-18.5 -7.5q-10 0 -18 7.5t-8 18.5v193q0 13 10 23t24 10h117q78 -1 133 -56t56 -133q0 -78 -55.5 -133.5
t-133.5 -56.5h-23zM274 3q-78 0 -133.5 55.5t-55.5 133.5t55.5 133.5t133.5 55.5h118q13 0 23 -10t10 -23v-193q0 -11 -8 -18.5t-18.5 -7.5t-18 7.5t-7.5 18.5v108q0 7 -7 10h-4q-5 0 -8 -4h-1q-22 -28 -63.5 -51t-76.5 -27q-5 -1 -8 -4t-3 -7v-1q1 -9 10 -10h1
q32 3 70 20.5t61 39.5q1 1 3 1h2q2 -2 2 -5v-38v-1q0 -2 -2 -4q-12 -6 -21 -21t-9 -29v-1v-1q0 -18 11 -31q1 -2 1 -3v-1q-1 -2 -3 -3q-14 -7 -24.5 -22.5t-10.5 -31t8 -28.5q1 -1 1 -2.5t-1 -2.5q-1 -2 -3 -2h-1h-23zM351 3q-15 0 -25.5 10.5t-10.5 25.5t10 25.5t25 10.5
h102q15 0 25 -10.5t10 -25.5t-10.5 -25.5t-25.5 -10.5h-100zM374 97q-14 0 -23.5 10.5t-9.5 24.5v2v1q0 8 3 14q2 3 4 3h1q4 -1 4 -4q2 -16 15.5 -28t30.5 -12q19 0 33 13.5t14 33.5v10q0 4 4 4h14q14 0 24.5 -10.5t10.5 -24.5v-2v-1q0 -14 -10.5 -24t-24.5 -10h-90z
M451 212q-5 0 -5 4v64q0 4 5 4h35q15 0 25.5 -10.5t10.5 -25.5v0q0 -15 -10.5 -25.5t-25.5 -10.5h-35zM451 307q-2 0 -3.5 1t-1.5 3v37q0 14 -7 26q-1 1 -1 2t1 2q1 3 4 3h51q15 0 25.5 -10.5t10.5 -25.5v-1q0 -15 -10.5 -25.5t-25.5 -10.5h-1l-42 -2v1z" />
    <glyph glyph-name="semicolon" unicode=";" 
d="M372 472l-213 88q-11 5 -11 18q0 4 2 8q24 44 72 92t91 72q4 2 9 2q12 0 18 -10l87 -214q2 -3 2 -7q0 -9 -8 -14l-26 -26q-6 -10 -17 -10q-3 0 -6 1zM354 425v1q12 -8 12 -21q-2 -9 -2 -19t2 -19v-3q0 -13 -12 -18l-213 -87q-1 -1 -2 -1q-2 -1 -4 -1q-14 0 -17 13
q-17 57 -17 116t17 116v2q5 11 17 11q3 0 6 -2zM646 472q-12 -6 -23 9l-27 26q-7 6 -7 14q0 4 2 7l87 214q6 10 18 10q4 0 8 -1q44 -25 92 -73t72 -91q4 -9 2 -17t-11 -10zM594 250q-1 3 -1 6q0 12 9 17l27 27q5 7 13 7q4 0 7 -1l213 -88q11 -6 11 -18q0 -5 -2 -9
q-24 -43 -72 -91t-92 -73q-8 -4 -16 -1.5t-10 10.5zM372 305q3 1 6 1q11 0 17 -9l26 -27q8 -5 8 -14q0 -3 -2 -6l-87 -214q-6 -11 -18 -11q-5 0 -9 2q-43 24 -91 72t-72 92q-5 9 -2.5 16.5t11.5 10.5zM879 513q3 2 6 2h2q6 0 10.5 -4t5.5 -10q16 -56 16 -115t-16 -116
q0 -1 -1 -2q-4 -11 -16 -11q-3 0 -7 1l-213 88q-11 5 -11 18v3q2 9 2 18.5t-2 19.5v2q0 13 11 18zM471 232q7 11 20 12q9 -2 19 -2t19 2h3q12 0 18 -12l87 -214q1 -1 1 -2v-4q0 -14 -13 -17q-56 -17 -115 -17t-115 17q-1 0 -2 1q-11 4 -11 16q0 3 1 6zM611 785q3 0 7 -1
l4 -1q17 -5 12 -24l-87 -214q-5 -12 -18 -12q-2 0 -3 1q-9 2 -18.5 2t-19.5 -2q-1 -1 -2 -1q-13 0 -18 12l-88 214l-1 2v5q0 13 13 17q3 0 7 1t7 1q3 1 6 1q14 0 18 -12q17 -57 38 -109l23 -64q3 -6 9 -9q4 -2 9 -2q12 0 17 11l24 64q20 53 37 109q6 12 19 12q2 0 5 -1z
M541 460v1q10 0 14 -9l33 -53q2 -4 2 -8.5t-2 -9.5l-33 -52q-4 -9 -14 -9h-62q-10 0 -14 9l-32 52q-3 5 -3 9.5t3 8.5l32 53q4 8 14 8h62zM509 917v0q23 0 39 -16t16 -39q-11 -68 -38 -132q-2 -10 -12 -13h-5q-14 0 -18 13q-24 65 -38 132q0 23 16.5 39t39.5 16z" />
    <glyph glyph-name="less" unicode="&#x3c;" 
d="M450 21q-17 0 -29 12t-12 29q0 8 3 15l49 122q4 11 15 18.5t23 7.5h26q12 0 23 -7.5t15 -18.5l49 -122q3 -7 3 -15q0 -11 -7.5 -22t-18.5 -16q-7 -3 -15 -3h-124zM675 103l-70 140q-5 10 -15.5 16.5t-21.5 6.5h-112q-11 0 -21.5 -6.5t-15.5 -16.5l-70 -140h-176
q-11 0 -19 8t-8 20t10 21l234 195v326l59 158q8 16 26.5 29t36.5 15q18 -2 36.5 -15t26.5 -29l59 -158v-326l234 -195q10 -9 10 -22q0 -10 -6 -17q-9 -10 -21 -10h-176zM471 673h82l-41 122zM675 393v239v1q0 33 23.5 57t56.5 24h1q34 0 57.5 -23.5t24.5 -56.5v-380z
M186 632v1q0 33 24 57t57 24h1q33 0 57 -23.5t24 -56.5v-241l-163 -139v378z" />
    <glyph glyph-name="equal" unicode="=" 
d="M394 452l23 262q1 19 16 32.5t34 13.5q1 0 3 -1l112 -9q-6 -9 -10 -20l-100 -276q-9 1 -30 1h-12q-18 0 -36 -3zM262 398l-49 270v9q0 17 12 31.5t29 17.5l132 24q-7 -15 -9 -32l-23 -273q-22 -4 -49 -18t-43 -29zM978 582l-151 -417q-5 -13 -18.5 -22.5t-27.5 -9.5
q-9 0 -17 3l-125 46v18q0 9 -4 18q4 8 4 18v46q0 9 -4 18q4 8 4 16v2v46v1q0 12 -8 22q-19 23 -54 41.5t-65 21.5l97 268q5 13 18.5 22.5t27.5 9.5q9 0 17 -3l277 -101q13 -5 22.5 -18.5t9.5 -27.5q0 -9 -2 -17zM822 527q-13 5 -27 5q-25 0 -44 -15q-3 17 -17 33t-30 23
q-8 2 -17 2q-18 0 -34.5 -12t-21.5 -30q-2 -8 -2 -17t2 -18l61 -139q110 50 137 65q11 8 18.5 22t7.5 28q0 18 -11 34q-8 12 -22 19zM246 151q0 -1 0.5 -5t0.5 -5l-199 388q-5 10 -5 22t7.5 25t18.5 19l109 56l68 -389v-28q0 -10 4 -18q-4 -9 -4 -19v-46zM442 230v-1
q55 0 98.5 14.5t59.5 37.5v-46q-17 -22 -60 -36.5t-98 -14.5q-53 0 -96 13.5t-60 36.5v46q17 -22 60 -36t96 -14zM600 364v-46q-17 -23 -60.5 -37t-98.5 -14q-53 0 -96 14t-60 36v49q17 22 60 36t96 14q55 0 98.5 -14.5t59.5 -37.5h1zM600 199v-46q-17 -23 -60.5 -37.5
t-98.5 -14.5q-53 0 -96 14.5t-60 36.5v45q17 -22 60 -36t96 -14q55 0 98.5 14.5t59.5 37.5h1z" />
    <glyph glyph-name="greater" unicode="&#x3e;" 
d="M287 235q-11 20 -20.5 51.5t-10.5 54.5v17q1 88 62.5 161t147.5 88h2q6 0 19.5 1.5t19.5 1.5q70 -1 138.5 -47t94.5 -111q19 -44 19 -92v-2q0 -104 -74 -177.5t-178 -73.5q-60 0 -124.5 37.5t-95.5 90.5zM308 224q29 -11 59 -13q33 -34 76 -54q0 -4 1 -15.5t1 -18.5
q1 1 2 1q5 0 10 -3q-4 18 -6 36q35 9 63 33q49 -6 99 -6h10l8 -31q30 17 60 52t43 67q-5 0 -20 -1t-20 -1q-4 15 -13.5 37.5t-17.5 40t-9 19.5q17 38 17 80v1h63q-1 2 -2 5l-2 6h-63q-31 30 -69 50q-10 37 -30 69l21 4q-37 15 -77 15h-4h-6q-13 0 -26 -2q16 -2 47 -9t35 -8
q18 -32 27 -69q-38 -14 -67 -44q-53 15 -109 17q-15 37 -19 50q4 4 38 33q25 19 42 32q-6 -1 -27 -6q-33 -24 -61 -53q-17 -5 -36.5 -17.5t-30.5 -26.5q-21 -32 -21 -70v-3h-2q-13 -22 -23 -46v-31q10 35 29 67l44 -15q1 -2 17 -44t25 -59q-15 -34 -21 -71q-16 1 -32 4
l-18 6q-9 5 -17 11zM518 201q-3 8 -13.5 37.5t-13.5 37.5q10 12 37.5 49t29.5 39l84 -4q23 -47 39 -96q-26 -37 -54 -69h-2q-54 0 -107 6zM394 297q-24 50 -42 103l55 71q56 -1 111 -16q18 -41 31 -84q-60 -80 -67 -88q-54 6 -88 14zM171 149h-86v640h854v-640h-86v555h-682
v-555z" />
    <glyph glyph-name="question" unicode="?" 
d="M387 901q5 8 12.5 12t16.5 4q19 0 28 -16l213 -368q4 -7 4 -16v0q0 -14 -9.5 -23.5t-23.5 -9.5h-424q-14 0 -23.5 9.5t-9.5 23.5q0 9 4 16zM637 -5q-10 -16 -29 -16t-28 16l-212 368q-5 7 -5 16q0 14 10 23.5t23 9.5h425q13 0 23 -9.5t10 -23.5q0 -9 -5 -16z" />
    <glyph glyph-name="at" unicode="@" 
d="M180 691l115 -512l-196 414q-5 10 -5 22q0 13 9 27t22 19zM415 51l192 43l-171 -81q-10 -5 -21 -5q-14 0 -27.5 9t-19.5 21l-13 22q20 -10 43 -10q8 0 17 1zM345 802v-520l-98 443q-2 7 -2 15q0 17 12 31.5t28 17.5zM435 128h192l-188 -43q-6 -1 -11 -1q-17 0 -31 11.5
t-18 28.5l-4 25q26 -20 60 -21zM429 832q3 21 20 36.5t38 15.5q3 0 6 -1h389q3 1 6 1q21 0 38 -15.5t20 -36.5v-614q-3 -22 -20 -37t-38 -15h-6h-389h-6q-21 0 -38 15t-20 37v614z" />
    <glyph glyph-name="B" unicode="B" horiz-adv-x="1017" 
d="M699 352h-8q-19 0 -31 15q-12 14 -12 33q0 21 16 35q1 1 2 3q15 15 36 15t35 -15q12 -11 12 -27q0 -8 -3 -15q6 2 12 2q20 0 32 -16q17 -16 17 -39q0 -10 -6 -22t-14 -19q-15 -16 -37 -16q-11 0 -23.5 6.5t-19.5 15.5q-12 11 -12 28q0 8 4 16zM716 385q8 6 8 16
q0 7 -4 13q-2 2 -4 3q-6 9 -17 9q-6 0 -12 -3l-3 -3q-8 -6 -8 -16q0 -7 5 -13q1 -2 3 -3q11 -19 32 -3zM769 323q19 14 0 38q-7 11 -20 11q-8 0 -14 -4l-4 -4q-16 -13 0 -38q8 -9 21 -9q10 0 18 6h-1zM652 23q-113 0 -193 80t-80 193t80 193t193 80t193 -80t80 -193
q0 -47 -23.5 -103.5t-56.5 -89.5t-89.5 -56.5t-103.5 -23.5v0zM705 499q-30 0 -56 -14q-18 -11 -33.5 -33.5t-19.5 -43.5q-2 -12 -2 -25q0 -18 6.5 -40.5t15.5 -37.5q12 -20 35 -40t45 -27q18 -7 38 -7q30 0 56 15q18 12 33.5 34t19.5 43q2 13 2 25q0 18 -6.5 40.5
t-16.5 37.5q-11 20 -34 40t-45 28q-15 6 -32 6q-3 0 -6 -1zM196 444q6 1 13 4t13 4q4 -9 12 -14q6 -3 12 -3h3q6 0 12 12q3 9 3 18v5q-4 11 -9 21q-8 5 -18 6q-11 0 -21 -15h-23q-1 10 -1 21q0 31 10 61q17 2 38.5 5t34.5 4q0 -6 1.5 -13t1.5 -13q-27 -3 -53 -9
q0 -6 -1.5 -13.5t-1.5 -13.5q10 6 21 9q4 1 7 1q16 0 29.5 -11.5t15.5 -26.5q1 -2 1 -4q1 -5 1 -10q0 -14 -7 -25q-5 -9 -15.5 -17t-19.5 -10q-7 -2 -13 -2q-11 0 -20 5q-8 2 -16 9t-10 15zM337 299v-10q0 -26 6 -51q-14 0 -27 5q-95 29 -163 119.5t-68 189.5q0 88 43.5 162
t117.5 117.5t162 43.5q113 0 206 -79t111 -191q-35 9 -71 9h-2q-49 0 -109 -22.5t-97 -53.5q-9 52 -53.5 89t-97.5 37q-14 0 -29 -3q-44 -14 -76 -57.5t-32 -90.5q0 -25 8 -49q10 -53 55 -90t99 -37q10 0 20 1q-3 -16 -3 -32v-7zM363 432q-4 -1 -8 -1q-15 0 -27 10
q-17 8 -20 26q4 2 12.5 3.5t13.5 2.5q0 -10 9 -15q6 -3 12 -3h3q10 0 14 9t4 19q0 2 -1 5v2q0 12 -8 18q-7 6 -15 6h-3q-14 -3 -21 -15h-23q0 17 1.5 40.5t1.5 39.5q35 7 70 18q2 -5 3.5 -13.5t2.5 -13.5q-24 -11 -50 -15v-26q7 8 18 9q4 1 9 1q15 0 26 -10q13 -12 18 -30
q-24 -32 -42 -67z" />
    <glyph glyph-name="C" unicode="C" 
d="M158 293q-7 -1 -14.5 8t-15.5 26q1 13 10 25.5t20 17.5q115 23 256.5 96.5t226.5 154.5q56 42 101 96v12l-40 34v10q-7 7 -3 12t13 7l161 81q8 4 14 -1t6 -17l-10 -208q0 -12 -6.5 -16t-13.5 3l-50 39q0 6 -8 -1q-3 -2 -3 -3q-55 -61 -120 -111q-91 -81 -238.5 -158
t-265.5 -104q-10 -3 -20 -3zM893 567v-507q-1 -16 -13 -27t-27 -12h-695q-13 1 -22 10.5t-9 22.5v5v169q15 -6 31 -6h10l2.5 0.5t8 1.5t9.5 1q46 9 90 23l51 19q78 31 151 71l50 33q36 19 91.5 59t70.5 50l50 48q29 29 60 55v-4q10 -9 25.5 -15t28.5 -6q20 0 37 9z" />
    <glyph glyph-name="D" unicode="D" 
d="M912 508q11 -34 18.5 -84t7.5 -85q0 -58 -11 -114q-2 -23 -15 -42q-8 -12 -24.5 -21t-31.5 -9q-17 0 -31 8q-38 21 -68 53q-46 46 -64 68q-9 9 -23.5 15.5t-27.5 6.5h-2h-260h-2q-12 0 -26 -6.5t-21 -15.5q-42 -55 -95 -99l-34 -22l-6 -4q-14 -7 -29 -7q-17 0 -34.5 11
t-24.5 26q-16 36 -19 76q-4 28 -4 56v12v9q0 61 22.5 141t53.5 133q9 18 23 34q20 28 59.5 48t74.5 20q32 0 62 -12q32 -10 60 -30q22 -15 49 -15h4h38h4q27 0 49 15q19 14 50 26.5t55 15.5q10 1 20 1q32 0 68 -17t56 -41q22 -28 45 -72.5t34 -78.5zM418 463v41v1.5v1.5
q-2 9 -10 9h-2h-45v45q-4 11 -15 11h-38h-1.5h-1.5q-8 -1 -8 -10v-1v-45h-46q-10 -4 -11 -16v-37v-1.5v-1.5q1 -9 10 -9h1h50v-45q-1 -1 -1 -1.5t1 -1.5q1 -8 9 -8h2h38q10 0 11 11v45h45h1.5h1.5q9 2 9 10v2zM697 576h-1q-13 0 -22.5 -9t-10.5 -21q0 -13 9 -24t21 -14
q14 0 24 10t10 24q1 3 1 5q0 1 -1 2q0 11 -8.5 19t-19.5 8h-2zM637 448q12 1 22 11t12 23q0 14 -10 24t-24.5 10t-24.5 -10t-10 -24t10 -24t25 -10zM697 391h2h1q13 0 22 9t9 21q0 14 -10 24t-24 10q-3 1 -5 1h-2q-11 -1 -19 -9.5t-8 -19.5v-2q0 -14 10 -24t24 -10zM761 448
q12 0 22 9t12 21q0 14 -10 24t-24 10h-6h-1q-11 0 -19 -8.5t-8 -19.5v-2q0 -14 10 -24t24 -10z" />
    <glyph glyph-name="E" unicode="E" 
d="M372 960h280l-140 -140zM442 510q-9 -11 -16 -29t-7 -33q0 -39 27 -66t66 -27t66 27t27 66q0 16 -8 35.5t-19 30.5l66 66q22 -23 38 -61.5t16 -70.5q0 -77 -54.5 -131.5t-131.5 -54.5t-131.5 54.5t-54.5 131.5q0 31 15 68.5t36 59.5l329 330q23 22 61.5 38t70.5 16
q77 0 131.5 -54.5t54.5 -131.5t-54.5 -131.5t-131.5 -54.5q-32 0 -70.5 16t-61.5 38l66 66q11 -11 30 -19t35 -8h1q38 0 65.5 27t27.5 65.5t-27.5 66t-65.5 27.5h-1q-16 0 -35 -8t-30 -20zM252 839q-11 12 -30 20t-35 8h-1q-38 0 -65.5 -27.5t-27.5 -66t27.5 -65.5t65.5 -27
h1q16 0 35 8t30 19l66 -66q-23 -22 -61.5 -38t-70.5 -16q-77 0 -131.5 54.5t-54.5 131.5t54.5 131.5t131.5 54.5q32 0 70.5 -16t61.5 -38l128 -129l-66 -66z" />
    <glyph glyph-name="F" unicode="F" 
d="M542 342q-29 -12 -71.5 -22t-73.5 -12q-38 1 -76 9q-23 -16 -57.5 -32t-61.5 -24q-18 -7 -38 -8q-5 0 -9 4q-3 4 -4 8v13v4v4q0 5 9 13q4 2 6 4t3.5 5t3.5 4q0 4 8 13q2 2 6 8t7 9l8 17q-21 11 -46 33.5t-39 42.5q-12 18 -20.5 46.5t-8.5 50.5v1q0 25 11 57.5t27 52.5
q19 22 51.5 45.5t58.5 35.5q31 12 75.5 21t77.5 9t77.5 -9t75.5 -21q27 -11 59.5 -34.5t50.5 -46.5q16 -20 27 -52.5t11 -58t-11 -58t-27 -52.5q-19 -21 -51.5 -45t-58.5 -35zM542 342zM826 325q-13 -19 -36.5 -39t-43.5 -29q2 -2 4 -8.5t4 -8.5t6 -8.5t6.5 -8.5t4.5 -6.5
t4 -6.5l13 -13q3 -7 8 -12v-26q0 -4 -4 -8q0 -4 -8 -4q-20 2 -38 8q-27 7 -62 23.5t-57 31.5q-38 -7 -77 -8h-12q-42 0 -97 16t-90 39h38q67 1 132 21q25 7 59 23.5t55 31.5t45 41t36 49q12 21 21 53t9 56v1v10q0 28 -9 53q21 -12 46 -34.5t39 -41.5q14 -18 23.5 -46.5
t10.5 -51.5v-3q0 -21 -8.5 -49t-21.5 -45zM826 325z" />
    <glyph glyph-name="G" unicode="G" 
d="M296 612v-201h-72q-41 0 -70.5 29.5t-29.5 71t29.5 71t70.5 29.5h72zM824 786q40 -6 67 -85.5t27 -189t-27.5 -189t-66.5 -85.5q-3 -1 -6 -1q-36 0 -66 13t-60 33.5t-67.5 42.5t-106.5 44t-160 35v215q91 13 160 35t106.5 44.5t67.5 43t60 33t66 12.5q3 0 6 -1z
M809.5 263q33.5 0 57 73t23.5 175.5t-23.5 175.5t-57 73t-57.5 -72.5t-24 -176t24 -176t57.5 -72.5zM846 511.5q0 -41.5 -9.5 -70.5t-23.5 -29t-23 29t-9 70.5t9.5 70.5t22.5 29t23 -29t10 -70.5zM292 374h68l105 -202q10 -16 10 -34q0 -14 -9 -30t-22 -24q-9 -6 -20 -8
q-7 -1 -13 -1q-22 0 -40 14.5t-22 36.5l-1 2z" />
    <glyph glyph-name="H" unicode="H" 
d="M223 -64v128q-59 1 -110 31.5t-81.5 81.5t-31.5 111v363q2 93 69.5 158.5t159.5 65.5h5h556q33 -1 74.5 -14.5t68.5 -32.5q38 -26 64.5 -78t26.5 -98v-1v-363q-2 -93 -69.5 -158.5t-159.5 -65.5h-5h-435zM763.5 533q-26.5 0 -45 -18.5t-18.5 -45t18.5 -45.5t45 -19
t45.5 19t19 45.5t-19 45t-45.5 18.5zM520.5 533q-26.5 0 -45 -18.5t-18.5 -45t18.5 -45.5t45.5 -19h3q25 0 43 18t18 43v3q0 27 -19 45.5t-45.5 18.5zM277.5 533q-26.5 0 -45.5 -18.5t-19 -45t19 -45.5t45 -19h4q25 0 42.5 18t17.5 43v3q0 27 -18.5 45.5t-45 18.5z" />
    <glyph glyph-name="I" unicode="I" 
d="M804 594q-20 40 -61.5 82t-81.5 63l39 92q55 -27 112.5 -85t84.5 -113zM512 121q51 0 100 16l38 -93q-28 -9 -68.5 -16t-69.5 -7q-30 0 -71.5 7t-70.5 17l39 93q50 -17 103 -17zM335 448q0 73 52 125t125 52t125 -52t52 -125t-52 -125t-125 -52t-125 52t-52 125zM658 156
q40 20 82 61.5t62 81.5l93 -39q-27 -55 -85 -112.5t-114 -84.5zM511.5 725q114.5 0 196 -81.5t81.5 -196t-81 -195.5t-196 -81t-196 81t-81 196t81 196t195.5 81zM512 221q94 0 160.5 66.5t66.5 160.5t-66.5 160.5t-160.5 66.5t-160.5 -66.5t-66.5 -160.5t66.5 -160.5
t160.5 -66.5zM220 302q20 -40 61.5 -82t81.5 -62l-39 -93q-55 27 -112.5 85t-84.5 114zM916 586q9 -28 16 -68.5t7 -69.5q0 -30 -7 -71.5t-17 -70.5l-93 39q17 50 17 103q0 51 -16 100zM185 448v0q0 -51 16 -100l-93 -38q-9 28 -16 68.5t-7 69.5q0 30 7 71.5t17 70.5l93 -39
q-17 -50 -17 -103zM366 740q-40 -20 -82 -61.5t-63 -81.5l-92 39q27 55 85 112.5t113 84.5zM512 775v0q-51 0 -100 -16l-38 93q27 9 67.5 16t70.5 7t71.5 -7t69.5 -17l-38 -93q-50 17 -103 17z" />
    <glyph glyph-name="J" unicode="J" 
d="M899 507q0 -116 -30.5 -198t-73.5 -84h-64q-72 48 -183 94.5t-195 63.5q-11 61 -11 122v2v9q0 58 11 116q84 17 195 63t183 94h64q43 -1 73.5 -83.5t30.5 -198.5zM773 269q12 1 20 12q18 22 27 49q12 33 20.5 82t8.5 85v11v12q0 35 -8.5 84t-20.5 83q-9 27 -27 48
q-13 13 -20 13t-20 -13q-18 -21 -28 -48q-12 -34 -20.5 -83t-8.5 -84q0 -6 1 -12q-1 -6 -1 -11q0 -36 8.5 -85t20.5 -82q10 -27 28 -49q13 -12 20 -12zM285 507v-3q0 -56 9 -111q-55 8 -109 8h-3h-53l-44 73v68l44 72h54h2q55 0 109 8q-9 -54 -9 -109v-6zM378 344l99 -177
q3 -5 3 -10q0 -15 -14 -20l-94 -37q-4 -2 -9 -2q-7 0 -13 5t-8 12l-66 248zM773 416q-5 0 -7 4q-7 9 -11 19q-11 32 -11 65v4.5v4.5q0 33 11 64q4 10 11 19q4 4 7 4q4 0 7 -4q7 -9 11 -19q10 -31 10 -64v-4.5v-5.5q0 -32 -10 -64q-5 -10 -11 -19q-3 -3 -7 -4zM773 416z" />
    <glyph glyph-name="K" unicode="K" 
d="M513 100l-12 13q-33 32 -80.5 78t-134 132.5t-114.5 118.5q-34 39 -42 91.5t13 103.5q23 53 69 85.5t105 36.5h8q44 0 97 -25t90 -69q31 41 86 65.5t101 24.5h14q60 -7 106 -44q43 -34 63 -85q19 -48 12 -97.5t-39 -86.5q-62 -73 -329 -329zM325 741q-4 0 -7 -1
q-56 -3 -98 -34.5t-60 -74t-12 -92t38 -85.5q28 -32 109.5 -114t149.5 -148l68 -66q267 256 328 328q31 35 35.5 82.5t-13.5 89t-58.5 73.5t-93.5 37q-6 1 -12 1q-49 0 -106.5 -29t-79.5 -76q-32 50 -87.5 79.5t-100.5 29.5zM325 777q55 0 114 -31q41 -22 72 -53
q36 38 90 59.5t98 21.5q8 0 16 -1q66 -7 116 -47q46 -37 68 -93q21 -53 13 -107.5t-43 -95.5q-63 -73 -330 -330l-26 -25l-25 25q-266 257 -330 330q-38 43 -46.5 100.5t14.5 113.5q24 55 71 91q52 38 119 42h9zM1024 960zM0 -64z" />
    <glyph glyph-name="L" unicode="L" 
d="M941 687q17 -6 28.5 -22.5t11.5 -33.5q0 -6 -1 -12l-122 -454v-1q-5 -15 -19 -25.5t-30 -10.5q-7 0 -14 2l-217 59q16 9 23 28q12 20 12 44q0 14 -4 27l-75 280l44 162v1q4 15 18.5 26t30.5 11q7 0 14 -2zM708 252l102 387l-39 12q-7 -15 -23.5 -25.5t-32.5 -10.5
q-12 0 -23 5l-12 -44l48 -12l-79 -296zM380 766l5 1q5 1 11 1q16 0 30 -11t17 -27l123 -454v-1q2 -6 2 -13q0 -16 -11 -30.5t-27 -18.5l-300 -79h-1q-6 -2 -13 -2q-16 0 -30.5 11t-18.5 27l-122 453l-1 2q-1 6 -1 13q0 16 11 30t26 19zM399 273l-110 385l-40 -10v-7
q0 -22 -15 -39.5t-37 -21.5l12 -43l47 14l84 -295z" />
    <glyph glyph-name="M" unicode="M" 
d="M466 199q-6 -10 -17.5 -16.5t-22.5 -6.5q-10 0 -19 5q-1 -1 -2 -1q-6 0 -11 4q-10 5 -47.5 12t-74.5 12.5t-84 11.5t-56 8q-5 0 -9 4.5t-4 9.5v163q0 6 4 8.5t9 -5.5h13q21 21 55.5 41t62.5 28l128 18q55 16 81 14.5t32 -11.5l5 -10v-4q0 -26 -21.5 -40t-51.5 -21t-32 -7
q-29 -16 -52 -40h455v11v1q0 20 14 35.5t35 17.5h10v166h-10q-21 2 -35 17.5t-14 35.5v1v11h-360v-22q-3 -15 -15.5 -27.5t-27.5 -15.5q0 -3 -10 -1l-10 1v-54l-3 -4l-36 -3v119v6q0 19 13.5 33t32.5 15h465q20 -1 34.5 -16.5t14.5 -36.5v-1v-275v-1q0 -20 -14.5 -35.5
t-34.5 -17.5h-265q-10 -14 -66 -73.5t-59 -63.5zM466 199l154 448q43 -2 74 -34t31 -75v-7v-4q0 -45 -32 -78.5t-76 -36.5q-20 0 -43 10.5t-36 25.5q9 21 10 43v11q0 13 -8 28t-18 23q-3 3 -7 4q7 36 37.5 62.5t67.5 27.5zM601 332l82 214h-17v7v5q0 10 -3 20q-6 14 -10 18
q-7 7 -16 11t-19 4h-4h-4q-8 0 -16 -4q-9 -4 -16 -11q-10 -7 -13 -18q-4 -10 -4 -20v-5v-7h36v7q0 18 3 22q5 7 13 7q6 0 13 -7q4 -4 4 -22v-7h-20l-9 -214l18 8l-18 -8v0v0v0l18 8l-30 -18v0l12 10l-10 4v0v0zM102 858z" />
    <glyph glyph-name="N" unicode="N" 
d="M274 721h613v-437h-613v437zM579 614q43 -1 73.5 -32.5t30.5 -74.5v-5v-7q0 -43 -30.5 -73.5t-74 -30.5t-74 30.5t-30.5 73.5v7v2q0 44 31 76t74 34zM408 650v-4q0 -27 -19.5 -47t-47.5 -21v-147q28 -1 47.5 -21t19.5 -47v-3h342v3q0 27 19.5 47t47.5 21v147
q-28 1 -47.5 21t-19.5 47v4h-342zM137 578h66v-366h547v-71h-613v437z" />
    <glyph glyph-name="O" unicode="O" 
d="M755 721q26 -1 44.5 -20t19.5 -44v-452q0 -26 -19 -45t-45 -19h-452q-26 0 -45 19t-19 45v452q0 26 19 45t45 19h452zM432 270v225h-64v-225h64zM561 270v322h-64v-322h64zM690 270v129h-64v-129h64z" />
    <glyph glyph-name="P" unicode="P" 
d="M1008 448q0 -205 -145.5 -350.5t-350.5 -145.5t-350.5 145.5t-145.5 350.5t145.5 350.5t350.5 145.5t350.5 -145.5t145.5 -350.5zM455 185l368 368q9 10 9 23t-9 23l-46 45q-9 9 -22.5 9t-22.5 -9l-300 -300l-140 140q-9 9 -22.5 9t-22.5 -9l-46 -45q-9 -10 -9 -23t9 -23
l208 -208q10 -9 23 -9t23 9z" />
    <glyph glyph-name="Q" unicode="Q" 
d="M512 944q135 0 249 -66.5t180.5 -180.5t66.5 -249t-66.5 -249t-180.5 -180.5t-249 -66.5t-249 66.5t-180.5 180.5t-66.5 249t66.5 249t180.5 180.5t249 66.5zM755 318l-131 130l131 130q7 7 7 17t-7 17l-79 79q-7 7 -17 7t-17 -7l-130 -131l-130 131q-7 7 -17 7t-17 -7
l-79 -79q-7 -7 -7 -17t7 -17l131 -130l-131 -130q-7 -7 -7 -17t7 -17l79 -79q7 -7 17 -7t17 7l130 131l130 -131q7 -7 17 -7t17 7l79 79q7 7 7 17t-7 17z" />
    <glyph glyph-name="R" unicode="R" 
d="M646 120l-5 -5q-5 -4 -12 -3h-48q-3 0 -6 2q-2 1 -2.5 3t-0.5 4q1 2 1 3l90 110q2 3 2 6.5t-2 6.5l-85 106q-1 2 -1 4t1 3.5t2 2.5q3 2 6 2h47q3 1 6 0t5 -4q4 -3 6 -5l84 -104q4 -5 4 -11t-4 -11zM357 782l4 4t8 2h36q3 0 5 -1q1 -1 1.5 -2t0.5 -3v-1v-2l-68 -83
q-2 -2 -2 -5t2 -5l64 -81q1 -1 1 -3q0 -1 -0.5 -2t-1.5 -2t-2.5 -1.5t-2.5 -0.5h-35q-3 0 -5 1l-4 2q-2 2 -4 5l-64 78q-3 4 -3 8.5t3 8.5zM569 654q0 -32 -9 -62q-44 -9 -84 -32q38 32 48 81q8 42 1.5 76t-26 59.5t-43.5 41t-51 23.5q-65 18 -122.5 -14.5t-73.5 -93.5
q-18 -64 15 -125t107 -81q58 -15 112 11q-56 -42 -88 -104h-5q-67 -1 -123 36t-82 99t-13 128t60.5 113.5t113 60.5t127.5 -12.5t99 -81.5t37 -123zM623 570q54 0 104.5 -20.5t89 -59.5t59.5 -89.5t20 -104.5q0 -84 -46.5 -153t-123.5 -101t-158.5 -15.5t-140.5 75.5
t-75 141t16.5 158.5t102 122.5t152.5 46zM622 41q89 0 154 58.5t65 140.5q0 83 -57 139.5t-148 56.5q-81 0 -144 -58.5t-63 -137.5q-1 -40 13.5 -76t41.5 -64t63 -43.5t75 -15.5z" />
    <glyph glyph-name="S" unicode="S" 
d="M19 -46l69 247q-28 48 -48 121.5t-20 129.5q0 100 39.5 192t105.5 158t157.5 105.5t192.5 39.5t192.5 -39.5t158 -105.5t105.5 -158t39 -192.5t-39 -192t-105.5 -158t-158 -105.5t-192.5 -39q-53 0 -124 18.5t-118 44.5zM286 110l15 -9q41 -25 103.5 -42.5t110.5 -17.5
q112 0 206.5 55t149.5 149.5t55 206t-55 206t-149.5 149.5t-206.5 55t-206.5 -55t-149.5 -149.5t-55 -205.5q0 -50 19 -115t46 -107l10 -16l-40 -142zM376 682q10 0 14 -10l47 -109q2 -3 2 -7q0 -6 -4 -11l-41 -47q-3 -3 -3 -8q0 -3 1 -6q26 -46 78.5 -91t102.5 -63
q2 -1 4 -1q6 0 10 5l42 55q5 7 13 7q4 0 7 -2l109 -50q10 -4 10 -15q0 -2 -1 -4l-5 -24q-4 -17 -17 -36.5t-28 -28.5q-34 -22 -73 -22q-22 0 -43 7q-73 22 -155.5 82t-125.5 123q-22 26 -38 68.5t-16 76.5q0 15 2 30q5 18 19.5 39.5t28.5 34.5q11 9 26 9h2z" />
    <glyph glyph-name="T" unicode="T" 
d="M787 735q36 0 59 -23t28 -58v-44q0 -78 -52.5 -137t-128.5 -69q-19 -46 -58.5 -77.5t-91.5 -40.5v-125h163v-81h-413v81h169v125q-52 9 -91.5 40.5t-58.5 77.5q-79 10 -130 68t-51 138v44q0 33 24.5 57t56.5 24h81v81h413v-81h81zM212 610q0 -38 22.5 -70.5t58.5 -41.5
v156h-81v-44zM787 610v44h-81v-162q36 13 58.5 46.5t22.5 71.5z" />
    <glyph glyph-name="U" unicode="U" 
d="M506 -64h-14q-2 1 -8 4.5t-9 4.5q-168 93 -239 133q-31 17 -59 38q-73 55 -124.5 158t-51.5 194v8v447q0 20 8.5 28.5t28.5 8.5h923q20 0 29 -8.5t9 -28.5q0 -373 -1 -447v-2q0 -37 -6 -74q-12 -85 -73 -175.5t-135 -133.5q-41 -25 -86.5 -50t-104.5 -57t-87 -48z
M781 527q-8 10 -9 11q-44 53 -87 106q-9 15 -26 15q-13 0 -22 -9t-9 -22v-4v-177v-4q0 -12 9 -21t21.5 -9t21 9t8.5 21v4v87q0 1 1 10l42 -52q55 -66 57 -67q8 -12 23 -12q9 0 17 5.5t11 13.5q2 8 2 16v2v173q0 5 -1 10q-1 10 -9 17t-17 8h-4q-12 0 -20.5 -8.5t-8.5 -20.5
v-3v-86v-13zM453 506h15q69 1 74 2q26 4 45 26t19 48q0 29 -20.5 51.5t-49.5 24.5q-36 1 -113 0h-1q-12 0 -20.5 -8.5t-8.5 -20.5v-3q-1 -90 0 -180v-2q0 -13 8.5 -21.5t21 -8.5t21.5 8.5t9 21.5v2v29.5v30.5zM264 522q-36 88 -48 115q-2 9 -10.5 15.5t-18.5 6.5
q-12 0 -21 -9t-9 -21q0 -8 4 -15q37 -89 73 -178q3 -9 11.5 -15.5t18.5 -6.5t18.5 6t10.5 15l74 180q3 6 3 14q0 12 -8.5 21t-21.5 9q-9 0 -17.5 -6.5t-11.5 -14.5q-4 -12 -25 -62q-4 -10 -12.5 -30t-9.5 -24zM453 566v33h49q19 0 28 -1q6 0 10.5 -4.5t4.5 -11.5
q0 -6 -4 -10.5t-10 -5.5h-78z" />
    <glyph glyph-name="V" unicode="V" 
d="M492 854q4 19 4 39q0 24 -6 47q49 -5 110.5 -30t101.5 -55q61 -45 110 -130t58 -161q4 -29 4 -58q0 -89 -35 -169.5t-93.5 -139t-139 -93.5t-169.5 -35t-170 35t-139.5 93.5t-93 139t-34.5 169.5q0 105 51 200t139 157.5t192 75.5q-4 -38 -4 -42t2 -43
q-78 -13 -155.5 -73.5t-108.5 -132.5q-13 -28 -22 -69t-9 -71q0 -49 14 -95q30 -106 129 -181.5t209 -75.5q96 0 176.5 47t127.5 128t47 176q0 47 -19.5 107.5t-46.5 98.5q-35 49 -102.5 90.5t-127.5 50.5zM741 376q-22 -52 -75 -104t-106 -73l-123 307zM437 506l-131 -304
q-52 23 -103.5 76t-73.5 105zM744 630l-307 -123l131 304q52 -23 103.5 -76t72.5 -105zM133 637q22 52 75 104t106 73l123 -307zM124 -64q-1 8 -1 16t1 16q1 9 7 16.5t14.5 12t17.5 4.5h8h516q16 -1 29 -8q8 -3 13.5 -11.5t5.5 -16.5v-2v-27h-611zM629 100l32 -87h-464
l35 94q40 -21 100.5 -35.5t105.5 -14.5q41 0 97 12.5t94 30.5zM437 778q-20 21 -34 55t-14 63q0 20 5 40q3 15 18 20q12 4 24 4q13 0 25 -5q14 -5 18 -20q6 -19 6 -40q0 -37 -18 -69q-2 -4 -30 -48z" />
    <glyph glyph-name="W" unicode="W" 
d="M1024 450q0 -107 -1 -116q0 -18 -13 -34t-31 -20l-20 -4v-157h-309v153l-7 5q-31 3 -39.5 10.5t-16.5 37.5q-25 95 -50 189q-6 12 -6 26q0 22 16 39.5t38 19.5q92 25 118 31q6 2 13 2q24 0 40.5 -17t16.5 -40q0 -7 -2 -14q-3 -15 -16 -28t-29 -17q-12 -3 -36.5 -9.5
t-35.5 -9.5q-5 -1 -27 -9q11 -6 16 -6t14.5 4t14.5 4q32 -12 62 -29q30 -21 52 -50q19 -29 29 -62q7 -35 10 -71q6 21 6 43q0 20 -8 46t-19 42q-17 25 -48 50t-59 35l33 10q23 6 39.5 26.5t16.5 44.5q0 3 -1 6q-3 26 -23.5 44.5t-46.5 18.5h-2h-16v94v155v18q1 21 15.5 35
t34.5 14q21 0 35.5 -14.5t14.5 -34.5v-1v-111v-276v-7v-16q3 -24 21 -40.5t42 -16.5q20 0 37 12q0 1 16 14q5 -13 18.5 -25t27.5 -15q7 -2 13 -2q13 0 28 7t24 16zM675 637l-93 -25l-7 20q-31 113 -61 226q-4 14 -4 28v2q1 16 13 29t28 15q4 1 8 1q13 0 26 -8.5t19 -19.5
q3 -7 5 -15q32 -119 64 -239zM923 564v67v4q0 21 14.5 36t35.5 15t35.5 -15t14.5 -36v-3q1 -69 0 -139v-3q0 -21 -14.5 -35.5t-35.5 -14.5t-35.5 14.5t-14.5 35.5v2v36v36zM911 580v-70v-3q0 -21 -15 -35.5t-35 -14.5h-2q-20 0 -34.5 14t-14.5 35v4q-1 69 0 139v3
q0 21 14.5 35.5t35.5 14.5h1q21 -1 35.5 -16t14.5 -35q0 -2 -1 -4q1 -8 1 -67zM200 683q-19 -36 4 -90t75 -99l-52 -23q-4 16 -18 30t-29 19q-8 2 -16 2q-13 0 -28 -7t-23 -18q-27 36 -50 40.5t-62 -18.5q0 108 1 116q1 23 15.5 35.5t46.5 18.5v158h311v-158q12 -1 17 -2h2
q14 0 25.5 -9.5t12.5 -23.5q5 -17 36 -132q19 -68 21 -77q3 -10 3 -20q0 -21 -14.5 -38t-35.5 -20q-97 -26 -119 -32q-7 -2 -15 -2q-13 0 -27 8t-21 19q-9 14 -9 31q0 21 14 36q15 15 36 22q11 4 24 7.5t29 7.5l24 6q10 4 18 8q-10 6 -14.5 5.5t-13 -3.5t-13.5 -3
q-64 14 -110 70t-46 122q0 7 1 14zM0 403q0 68 1 72v1q0 20 14.5 34.5t34.5 14.5q7 0 14 -2q15 -3 25.5 -16.5t10.5 -28.5q2 -85 0 -152q-1 -19 -15.5 -32.5t-33.5 -13.5t-33.5 13.5t-16.5 32.5v77h-1zM113 386v69v4q0 20 15 35t35.5 15t35.5 -15t15 -35v-3q1 -70 0 -139v-2
q0 -21 -14.5 -35.5t-35.5 -14.5t-36 14.5t-15 35.5v1v70zM305 468q-42 -22 -56 -41t-9 -47q4 -28 23.5 -42t62.5 -20q1 -9 1 -19q0 -12 -1 -24q-2 -17 -15.5 -30t-31.5 -13h-3q-17 0 -31 12t-17 29q-1 7 -1 14v1v134q0 34 23 47.5t55 -1.5zM439 353q0 -60 -1 -64
q-2 -17 -15.5 -29t-30.5 -12h-2h-1q-17 0 -31 12t-17 29q-1 10 -1 20q0 9 1 17z" />
    <glyph glyph-name="X" unicode="X" 
d="M808 960q10 -4 17.5 -14.5t7.5 -21.5q0 -3 -1 -6v-52v-2q0 -13 -9 -22.5t-22.5 -9.5t-23 9.5t-9.5 22.5v2v52v6q0 11 7 21.5t18 14.5h15zM1024 728q-3 -11 -13.5 -18.5t-21.5 -7.5q-3 0 -5 1h-27h-27h-2q-13 0 -22.5 9t-9.5 23q0 5 2 10q2 9 10 15t17 6q35 1 70 0
q19 0 29 -24v-14zM740 630q31 -30 37 -37q10 -8 16.5 -22.5t6.5 -26.5t-6.5 -26.5t-16.5 -22.5q-21 -22 -31 -30q-4 -3 -4 -8q0 -2 1 -4q18 -64 20 -80q5 -28 5 -57q0 -51 -15 -101q-14 -50 -53.5 -108t-80.5 -90q-43 -34 -112.5 -57.5t-123.5 -23.5q-105 0 -193 51.5
t-139.5 139.5t-51.5 192.5t51.5 193t139.5 139.5t193 51q28 0 66 -6.5t64 -16.5q3 -1 7 -1q7 0 11 6q15 17 32 32q18 19 45 19q12 0 25.5 -6t21.5 -15q4 -3 39 -39l8 7l75 75q9 10 23 10q13 0 22.5 -9.5t9.5 -22.5q0 -15 -11 -25q-37 -36 -74 -73q-1 -1 -7 -8zM373 577
q-45 -7 -46 -8q-52 -12 -104 -54.5t-73 -91.5q-22 -48 -22 -101v-2q0 -13 9.5 -22.5t22.5 -9.5q12 0 21.5 9t10.5 21v6.5v6.5q3 47 34.5 94t73.5 67q39 20 83 20h1q13 0 22.5 9.5t9.5 22.5q0 9 -5 17q-12 16 -31 16h-7zM993 891q-4 -10 -10 -18q-34 -35 -63 -64
q-10 -9 -23.5 -9t-22.5 9q-10 10 -10 23t10 22q32 33 64 64q9 10 22 10q7 0 13 -3q8 -4 14 -13t6 -18v-3zM702 798q-11 4 -21 11q-17 15 -31 31q-10 10 -10 23q0 14 9 23t22.5 9t22.5 -9q18 -17 34 -34q8 -9 8 -20q0 -8 -4 -15t-13 -13t-17 -6zM922 575q-9 5 -18 11
q-16 14 -30 30q-10 10 -10 23t9 23q9 9 22.5 9t22.5 -9q22 -20 33 -34q9 -8 9 -20q0 -8 -4 -14q-4 -8 -12.5 -13.5t-17.5 -5.5h-4z" />
    <glyph glyph-name="Y" unicode="Y" 
d="M629 379q1 -3 1 -6q0 -22 -15 -42t-35 -27q-179 -48 -359 -94q-8 -2 -16 -2q-20 0 -38 14t-23 33q-71 263 -141 526q-3 9 -3 18q0 23 16 42t38 23q28 8 60 16.5t71 19t60 16.5q10 2 66 17.5t86 23.5q11 4 23 4q24 0 44 -17t25 -40q61 -228 122 -455q2 -7 18 -70zM320 430
l62 17v8q-9 15 -38 59h6q10 -3 20 -3q21 0 42 13t31 31t10 39q0 16 -9 34t-21 28q-29 22 -62 37q-21 11 -78 34h-3q-6 0 -10 -3q-40 -53 -53 -73q-21 -30 -34 -66q-3 -11 -3 -22q0 -29 20 -52t49 -28q6 -1 13 -1q16 0 34.5 8.5t29.5 20.5zM565 272l29 10q25 9 43.5 34
t18.5 53q0 13 -4 25q-107 408 -120 459q-4 13 -4 26q0 33 23.5 57t57.5 24q11 0 23 -4q24 -7 336 -91q23 -4 40 -23.5t17 -43.5q0 -12 -5 -24q-67 -254 -135 -508q-3 -24 -22.5 -41t-44.5 -17q-12 0 -24 5z" />
    <glyph glyph-name="Z" unicode="Z" 
d="M1024 416q-2 0 -2 -1v-9q0 -1 -1 -4t-1 -4q-2 -17 -9 -32q-5 -13 -15 -33l-10 -16q0 -4 2 -8q5 -9 6 -19q2 -8 2 -17q-1 -11 -5 -22q-5 -13 -14 -24q-15 -15 -34 -21q-11 -2 -21 -2q-6 0 -12 1q-14 2 -26 11q-10 6 -18.5 17.5t-11.5 21.5t-3 21q0 22 13 41q11 15 28 24
q10 6 22 6h2q2 0 3 1q2 1 5 1t5 -1h7q-1 21 -12 41q-9 13 -25 18q-9 5 -20 5h-3q-6 0 -7 1q0 1 -1.5 1t-1.5 -1q-3 -2 -8 -1.5t-8 -0.5q-9 -1 -17 -4q-20 -7 -34 -23q-15 -19 -21 -42q-5 -13 -7 -26q0 -8 -2 -16q-2 -10 -2 -20q-30 -11 -53 -34q-9 13 -22 21q-3 3 -24 17
q-8 65 -46.5 142.5t-84.5 123.5q27 19 28 20q16 12 35 20q12 9 26 14l27 11l10.5 3.5t11.5 3.5q10 4 21 6q13 3 25 5q6 0 11 1q8 1 9 2h2h8q12 0 24 2q4 1 9.5 -0.5t7.5 -1.5q5 1 9.5 1t8.5 -1q7 -1 13 -2q6 0 11 -1l12 -2q7 -3 20.5 -7t20.5 -7q29 -14 57 -33q8 -5 14 -12
l21 -21q23 -24 34 -55q7 -15 10 -32v-3.5v-3.5q0 -1 1 -2v-1v-38zM635 280l-28 -21q-22 15 -25 18q-8 5 -17 6q-4 1 -7 2q-2 -2 -5 -2q-10 -1 -19 -6q-4 -3 -12 -9.5t-12 -8.5l-25 18q-8 5 -18 6q-2 2 -5.5 2t-6.5 -2q-9 -1 -17 -6l-25 -18q-23 16 -24 17q-8 6 -19 7
q-2 0 -5 2q-3 -2 -6 -2q-10 -1 -17 -6q-15 -10 -28 -22q-3 -4 -7 -9q-23 23 -54 33v8q0 15 -3 29q-4 28 -17 53q-12 22 -34 34q-8 4 -17 6q-7 3 -15 3h-3q-5 0 -6 1h-2q-6 -2 -12 -2h-4q-7 0 -13 -3q-14 -4 -24 -15q-11 -12 -13 -29q0 -1 -2 -16q7 -1 9 0q1 1 2 1h1
q4 -1 12.5 -2t12.5 -3q14 -5 27 -19t18 -28q3 -9 3 -17q0 -14 -2 -16q-1 -14 -8 -24q-6 -12 -17 -19q-8 -7 -17 -11q-10 -4 -21 -5h-13q-19 0 -35 11q-15 10 -24 26q-4 9 -6 18q-1 4 -2 9v10q0 15 7 28q4 8 3 10q-9 14 -10 15q-1 3 -3 7t-3 7q-9 18 -16 38q0 4 -2.5 12.5
t-1.5 12.5q-2 13 -2 26v12q1 14 5 28q2 12 7 23t11 22q2 3 7 10t6 8q16 20 34 37q7 6 15 11q19 14 41 25q24 11 49 18q3 1 9 2t7 1q3 1 8.5 1.5t7.5 1.5q12 2 23 2h3t4.5 0.5t4.5 0.5q2 1 4.5 1t4.5 -1q2 0 7 -0.5t8 -0.5h8h8q4 -1 13 -2t14 -2q5 -2 15.5 -4t15.5 -4
q3 -1 13.5 -4t15.5 -5q14 -4 27 -11q12 -5 18 -8q7 -4 19.5 -11t14.5 -8q4 -2 13 -8.5t14 -9.5q6 -4 12 -9q11 -10 21 -19q8 -8 10 -8q3 -1 4 -4q0 -2 6 -9q19 -19 35 -42q18 -25 32 -53q8 -16 18 -41q2 -6 6 -20.5t7 -21.5q0 -4 2.5 -12.5t2.5 -12.5q0 -5 1 -9v-1
q0 -4 2 -8q1 -1 1 -10zM782 786q-20 8 -21 8q-10 3 -22 3q-17 0 -32 -8q-21 -12 -28 -34q-5 -14 -6 -29q-2 -25 -2 -50v-17v-4q-21 -8 -23 -8q-29 -10 -56 -23q-10 -5 -44 -26q-15 -9 -28 -21q-1 -1 -8 -5q-35 29 -92 55.5t-102 35.5v12v17q1 3 1 10.5t1 11.5q2 14 6 27
q0 1 -0.5 3.5t0.5 3.5q5 13 9 27q7 18 15 36q12 22 28 42q15 18 32 33q17 16 38 28q4 2 12 6.5t13 7.5q20 9 41 16q6 2 17.5 4.5t17.5 5.5q4 -1 10 0.5t8 1.5t7.5 1t6.5 1q13 1 13 2h5h25q6 0 18.5 -1.5t19.5 -1.5q4 -1 13.5 -2.5t13.5 -2.5q3 -1 8.5 -2t7.5 -2q6 -1 14 -4
q24 -8 46 -19q15 -9 30 -20q17 -14 32 -31t24 -39q6 -9 8 -19q1 -5 10 -9q17 -7 29 -22q6 -10 10 -22q3 -10 3 -20q0 -7 -1 -13q-1 -12 -6 -22q-10 -19 -29 -30q-15 -8 -31 -8h-4q-9 1 -19 2q-11 3 -22 10q-16 10 -23 27q-5 7 -6 15q-3 9 -3 19q1 24 15 43zM217 60
q-3 2 -4 2q-8 5 -8 14v1v163l5 9l8 4l14 -2q8 -1 16 -4q18 -8 34 -21q10 -8 19 -18q3 -3 8.5 -10t7.5 -8q2 11 3 15q4 13 13 22q7 10 18 17q4 2 8 6q3 1 6 1q10 0 17 -8q15 -11 25 -28q4 -9 7 -18h2q2 20 17 33q3 4 10 10t9 8q3 3 15 3q18 -11 31 -27q6 -9 9 -19q1 -2 2 -8
h2q4 8 6 16q0 4 10 15q11 14 27 23q8 2 21 -8q15 -11 25 -27q5 -9 5 -19h4q0 11 6 19q4 8 10 14l20 18q5 3 12 3h3q17 -11 29 -26q7 -8 10 -18q4 -9 5 -19q1 3 2 5q22 24 25 27q18 17 40 26q10 5 21 5l10 2l9 -4l5 -10v-167l-4 -6q-4 -5 -11 -5h-6z" />
    <glyph glyph-name="bracketleft" unicode="[" 
d="M0 742q2 14 11.5 31t20.5 26q23 18 52 18q32 0 56.5 -22t27.5 -54q1 -4 1 -9q0 -13 -6.5 -29.5t-15.5 -25.5l195 -96l149 212q-19 5 -36.5 21.5t-23.5 34.5q-5 13 -5 26q0 16 6 31q9 22 32 38t47 16q29 0 53.5 -20.5t29.5 -48.5q1 -7 1 -15q0 -27 -19 -51.5t-46 -31.5
l149 -212l191 94q-15 22 -15 49q0 14 5 27q4 13 14.5 26t21.5 19q20 13 44 13q35 0 59.5 -25t24.5 -60q0 -27 -16 -49q-42 -56 -120 -19q-3 -7 -4 -8l-96 -270q-2 -10 -12 -10h-2h-527h-2q-10 0 -12 10q-48 137 -97 275q-1 1 -2.5 5l-1.5 4l-16 -7q-15 -6 -32 -6
q-27 0 -51 18.5t-30 45.5q-1 1 -3 9v20zM814 307v-78h-606v78h606zM699 657l-59 83l106 62l42 -101zM278 802l104 -60l-59 -85l-87 43z" />
    <glyph glyph-name="bracketright" unicode="]" 
d="M0 124v14q8 14 18 27q9 11 86 98q-1 2 -2 3.5l-2 3t-2 2.5q-28 32 -54.5 85t-34.5 95q-1 1 -9 52v54l2 8q6 59 40.5 129t77.5 110q58 58 157 102.5t180 49.5q29 3 59 3q59 0 138.5 -20t131.5 -48q50 -25 104.5 -77t81.5 -100q22 -35 37 -89.5t15 -96.5q0 -45 -18 -104
t-43 -97q-27 -42 -76.5 -89t-92.5 -71q-48 -30 -122.5 -51.5t-131.5 -21.5h-494q-3 -1 -5 -1q-13 0 -25 9t-16 21zM291 609q-30 0 -51.5 -21.5t-21.5 -51.5t21.5 -51.5t51.5 -21.5t51 21.5t22 51.5q-1 30 -22 51t-51 22zM512 463q30 0 51 21.5t21 51.5t-21 51.5t-51.5 21.5
t-51.5 -21.5t-21 -51.5t21.5 -51.5t51.5 -21.5zM732 608.5q-30 -0.5 -51 -21.5t-21 -51t21 -51.5t51 -21.5t51.5 21.5t21.5 51.5t-21.5 51.5t-51.5 21z" />
    <glyph glyph-name="a" unicode="a" 
d="M959 131l-20 -20q-34 -20 -73 -20h-13q-277 1 -555 0q-27 0 -38.5 10.5t-10.5 38.5q2 32 0 114v2q0 13 -9.5 22.5t-22.5 9.5q-8 0 -15 -3q-8 -4 -13 -12.5t-5 -17.5v-2v-126v-4q0 -12 -9 -21.5t-21 -9.5q-15 -3 -31 -3q-45 0 -84 22l-21 20q-19 34 -19 73q0 7 1 13v470
q-1 7 -1 14q0 39 19 73l21 20q32 20 70 20q7 0 15 -1h4.5h4.5q29 2 40.5 -9.5t10.5 -41.5q-1 -32 0 -111v-2q0 -13 9.5 -23t23 -10t23.5 10t10 23v3v120q0 22 9.5 31.5t30.5 9.5h563q6 1 13 1q39 0 73 -20l20 -20q19 -34 19 -73v-14q-1 -235 0 -470v-13q0 -39 -19 -73z
M770 673q-9 9 -22 9q-19 0 -28 -16l-184 -276q-59 -87 -78 -116q-5 -9 -5 -19q0 -8 5.5 -17t13.5 -12q25 -12 45 18q51 77 102 153q78 117 155 233q7 8 7 19q0 14 -11 24zM555 653q-12 12 -32.5 20.5t-37.5 8.5q-41 0 -69.5 -28.5t-28.5 -69.5t28.5 -69.5t69.5 -28.5
q17 0 37.5 8.5t32.5 20.5t20 32t8 37t-8 37t-20 32zM818 390q-12 13 -32.5 21.5t-37.5 8.5q-41 0 -70 -29t-29 -69.5t29 -69.5t70 -29q16 0 36.5 8.5t32.5 19.5q12 12 20.5 32.5t8.5 37.5t-8.5 37t-19.5 32zM242 542q-10 9 -24 9q-7 0 -13 -3q-9 -3 -15 -11.5t-6 -18.5v-1
v-128v-2q0 -14 9.5 -23.5t23 -9.5t23 9.5t9.5 23.5v1q1 80 0 129q-2 13 -7 25zM509 561q-10 -10 -24 -10q-13 0 -22.5 9.5t-9.5 23.5q0 13 9 22q10 10 23 10q14 0 23.5 -9.5t9.5 -22.5q0 -14 -9 -23zM771 298q-10 -9 -23.5 -9t-23 9.5t-9.5 23t9.5 23t23 9.5t23.5 -9
q10 -10 10 -23.5t-10 -23.5z" />
    <glyph glyph-name="b" unicode="b" 
d="M0 418v60l2 21q11 105 71.5 202.5t153.5 165t197 85.5q7 1 58 8h60l8 -2q49 -3 114.5 -23.5t107.5 -46.5q85 -49 156.5 -152t87.5 -200q1 -6 8 -58v-60l-2 -21q-9 -79 -46.5 -155.5t-94 -137t-130 -103.5t-151.5 -57q-7 -1 -58 -8h-60l-8 2q-49 3 -114.5 23.5
t-107.5 46.5q-56 32 -108 90.5t-88.5 128.5t-47.5 133q-1 6 -8 58zM480 730v56q0 7 -6 11q-59 33 -119 65q-3 1 -6 1h-5q-43 -18 -94.5 -55.5t-81.5 -73.5q-3 -4 -3 -8v-2q14 -67 29 -134q2 -6 7 -9q45 -22 89 -43q3 -1 5 -1q4 0 7 2q87 62 173 126q5 5 5 12v53zM861 727
l-6 8q-29 35 -79.5 72t-93.5 55q-2 1 -5 1q-4 0 -7 -2q-21 -11 -60.5 -32t-57.5 -31q-8 -3 -8 -12v-1q1 -54 0 -107v-1q0 -9 7 -13q86 -62 171 -125q4 -3 8 -3t7 2q47 24 85 42q9 3 10 13l17 82q4 14 12 52zM175 522q-72 -77 -106 -114q-2 -3 -2 -7v-1q5 -45 26 -103t46 -96
q4 -5 11 -6q63 -4 127 -7q8 0 13 6q10 12 28 33.5t25 29.5q3 3 3 8q0 3 -1 5q-9 25 -32.5 93t-37.5 104q-2 6 -7 10q-8 3 -93 45zM513 224h-106q-7 0 -12 -5q-28 -32 -55 -65q-3 -4 -3 -10q0 -1 1 -3q17 -56 35 -111q3 -7 9 -9q63 -20 130 -20q54 0 106 13q8 2 12 10
q27 60 55 119q2 3 2 6q0 4 -4 8q-31 36 -52 61q-5 7 -14 7h-1q-30 -1 -103 -1zM850 522q-72 -35 -92 -45q-6 -4 -9 -11q-13 -36 -37 -103.5t-33 -91.5q-1 -3 -1 -6q0 -4 3 -8q8 -9 26 -30t27 -32q4 -4 10 -4h1q73 14 145 29q7 1 11 7q16 29 32 73t22 77q1 6 1 12
q0 22 -16 36q-13 13 -90 97z" />
    <glyph glyph-name="c" unicode="c" 
d="M542 -64h-60q-49 6 -52 7q-117 19 -216 93.5t-156.5 184.5t-57.5 228q0 25 2 50q6 68 43 152t82 135q60 68 166 119t197 54q14 1 28 1q57 0 131.5 -21t123.5 -51q84 -49 155 -152t88 -200q0 -2 8 -58v-60q-2 -14 -3 -22q-11 -104 -71 -202t-153.5 -165t-196.5 -85z
M512 806h-1q-97 0 -179 -48t-130 -130.5t-48 -179.5t48 -179.5t130 -130t179 -47.5t179.5 47.5t130.5 130t48 179.5t-48 179.5t-130 130.5t-179 48zM39 487v-78h78v78h-78zM549 841v78h-78v-78h78zM471 -23h78v78h-78v-78zM207 807l-54 -53l53 -54l54 54zM817 700l54 54
l-53 53l-54 -54zM207 196l-54 -54l53 -53l54 54zM817 88l53 53l-53 53l-53 -53zM904 487v-78h78v79h-72q-1 0 -4 -1h-2zM803 448q0 -121 -85.5 -206t-206 -85t-205.5 85t-85 206q0 120 85 205.5t205 85.5h1q120 0 205.5 -85t85.5 -206zM523 339q10 -9 27 -15.5t31 -6.5
q6 0 12 1q27 3 49 23.5t26 47.5q1 10 1 20q0 21 -10.5 45.5t-24.5 39.5q-13 12 -109 103q-2 2 -4 3.5t-5 4t-5 4.5q-108 -102 -120 -114q-15 -15 -26 -40t-11 -45q0 -8 1 -16q3 -32 28 -55t58 -23q8 0 16 1q25 6 44 24l-16 -56h53z" />
    <glyph glyph-name="d" unicode="d" 
d="M492 845q-4 -4 -7 -10l-287 -497v438q0 19 9 35q8 14 25.5 24t34.5 10h225zM275 665q18 -3 28 11v1q5 9 6 19l5 62l12 -2l1 5l-47 4v-5l14 -1l-5 -62q-2 -23 -7 -27q-2 -2 -4 -1q-5 0 -5 6q-1 1 -1 2q0 5 -3 9q-1 0 -1 1q-2 1 -5 1q-5 1 -8 -4v-1q-1 -1 -1 -3q0 -7 6 -11
h2q6 -4 13 -4zM565 747l-7 -40l-25 14zM948 636q21 -12 27.5 -35.5t-5.5 -44.5l-329 -569q-12 -21 -35.5 -27.5t-44.5 6.5l-365 210q-21 12 -27.5 36t5.5 45l328 568q13 21 36.5 27.5t44.5 -5.5zM575 763l-77 -63l-9 5l-2 -3l26 -15q2 3 0 5h-0.5t-1.5 1l-7 4l26 21l28 -16
l-5 -33l-10 5l-2 -3l35 -21q2 3 0 5l-1 1l-5 2l14 100zM419 261l103 -60q-5 22 -1.5 52t13.5 51l4 -10q6 -14 20 -30t27 -24q19 -10 46 -12.5t47 5.5q14 5 29.5 17.5t22.5 25.5q11 19 12 46t-8 46q-26 69 -30 81q-3 11 -32 133q-8 -3 -26.5 -10t-33 -11.5t-27.5 -8.5
q-26 -6 -74.5 -15t-59.5 -11q-19 -3 -39.5 -16.5t-30.5 -30.5q-7 -13 -10 -27q-7 -26 3.5 -57t31.5 -49q8 -6 17 -12q15 -9 39 -12.5t41 0.5q-13 -19 -37.5 -36.5t-46.5 -24.5z" />
    <glyph glyph-name="e" unicode="e" 
d="M731 862q0 74 12.5 86t85.5 12h97q74 0 86 -12t12 -86v-682q0 -73 -12 -85.5t-86 -12.5h-97q-73 0 -85.5 12.5t-12.5 85.5v682zM390 619q0 73 12 85t86 12h48q74 0 86 -12t12 -85v-439q0 -73 -12 -85.5t-86 -12.5h-48q-74 0 -86 12.5t-12 85.5v439zM0 375q0 73 12 85
t86 12h97q73 0 85.5 -12t12.5 -85v-195q0 -73 -12.5 -85.5t-85.5 -12.5h-97q-74 0 -86 12.5t-12 85.5v195z" />
    <glyph glyph-name="f" unicode="f" 
d="M1024 632v-628l-2 -4q-5 -27 -28 -45.5t-50 -18.5h-2h-860h-2q-33 0 -56.5 23.5t-23.5 56.5v2v600q0 12 3 25q7 23 29.5 40t47.5 17h4h849h13q24 -1 45.5 -17.5t28.5 -39.5q3 -9 4 -11zM512 178h354q36 0 36 36v348q0 36 -37 36h-706q-37 0 -37 -36v-347q0 -20 8.5 -28.5
t28.5 -8.5h353zM511 34h353h10q10 1 18.5 8.5t9.5 18.5v3q0 9 -6.5 17.5t-15.5 10.5q-6 2 -13 2h-2h-706h-9q-11 -1 -19 -9t-9 -18v-3q0 -9 6 -17.5t15 -10.5q7 -2 13 -2h2h353zM680 960q24 -4 48 -10q58 -16 108 -70t61 -113l1 -6h-774q7 26 17 51q23 55 80.5 97.5
t115.5 48.5q4 1 7 2h336zM362 850q0 12 -8.5 21t-20.5 9h-1q-12 0 -21 -8.5t-9 -20.5v-1q0 -12 9 -21t21 -9t21 9t9 21zM482 850q0 12 -8.5 21t-21 9t-21.5 -8.5t-9 -20.5v-1q0 -12 9 -21t21 -9t21 9t9 21zM572 820q12 0 21 9t9 21t-9 21t-21.5 9t-21 -9t-8.5 -21
q0 -13 9 -21.5t21 -8.5v0zM722 850q0 12 -9 21t-21 9t-21 -8.5t-9 -20.5v-1q0 -12 9 -21t21 -9t21 9t9 21zM183 239v298h178v-298h-178zM271 410q-4 -8 -4 -9q-21 -38 -30 -55q-7 -14 8 -15h10h9q6 1 10 6l42 80q1 3 1 6q0 7 -5 13t-11 7h-64l-1 1q-10 0 -10 -10v-1v-8
q0 -10 2.5 -12.5t12.5 -2.5h30zM601 238h-178v299h178v-299zM511 410l-4 -8q-21 -39 -30 -56q-8 -15 10 -15h7q5 0 11 1q5 0 9 5q23 44 42 81v5q0 8 -5 14t-13 7h-60q-6 0 -9 -3t-3 -9v-10q-1 -12 12 -12h33zM842 537v-298h-179v298h179zM751 410q0 -1 -1 -3t-2 -3.5
t-2 -3.5q-28 -52 -29 -54q-7 -14 8 -15h10h9q7 1 10 6q22 40 42 80q1 3 1 6q0 7 -5 13t-11 7h-64h-2q-9 0 -9 -9v-1v-11q-1 -13 13 -12h32z" />
    <glyph glyph-name="g" unicode="g" 
d="M152 765v-1q1 -1 2 -1q13 -5 22.5 -18t9.5 -27q0 -19 -13 -33q-22 -31 -43 -79t-29 -86q-8 -41 -8 -83q0 -56 23 -127t55 -116q15 -16 15 -37q0 -4 -1 -8q-2 -12 -12.5 -23t-23.5 -13q-5 -1 -10 -1q-11 0 -22 6t-17 14q-26 35 -51 90t-35 98q-14 59 -14 119q0 69 28 156
t69 143q13 15 30 27h25zM897 765q20 -16 36 -35q37 -54 64 -140t27 -152q0 -69 -29 -158t-69 -145q-6 -10 -18 -16.5t-23 -6.5h-9q-12 2 -23 12.5t-14 23.5q-1 5 -1 10q0 19 13 33q25 34 46.5 87.5t28.5 94.5q5 33 5 67q0 56 -23 127.5t-56 116.5q-14 14 -14 33q0 13 7 24
q12 14 27 24h25zM512 298q-58 0 -99 41.5t-41 99.5q1 57 41.5 98t98.5 41t99 -41t41 -99q-1 -58 -41.5 -98.5t-98.5 -41.5zM838 437q0 -50 -23.5 -112.5t-56.5 -100.5q-5 -8 -16.5 -13.5t-21.5 -5.5q-16 0 -29 10q-17 15 -17 37q0 19 13 33q24 27 41 72t17 81.5t-17 81
t-41 72.5q-13 13 -13 33q0 22 17 36q13 10 29 10q11 0 22 -5.5t17 -14.5q33 -38 56 -100.5t23 -112.5v-1zM295 672h5q12 0 25 -7t19 -17q6 -11 6 -23q0 -14 -7 -25q-5 -7 -10 -13q-23 -27 -38.5 -70.5t-15.5 -78.5t15.5 -78.5t38.5 -70.5q17 -16 17 -39v-4
q-1 -12 -10.5 -23.5t-21.5 -14.5q-7 -3 -16 -3q-20 0 -33 16q-35 37 -59.5 100.5t-24.5 114.5q0 17 2 34q4 43 27 96.5t52 85.5q13 12 29 20z" />
    <glyph glyph-name="h" unicode="h" 
d="M513 750h430h9q30 0 51.5 -21t21.5 -51q0 -4 -1 -9v-433q1 -5 1 -10q0 -32 -22.5 -54.5t-54.5 -22.5q-5 0 -10 1h-258q-3 -1 -6 -1q-19 0 -35.5 13t-20.5 31q-48 134 -48 135q-6 17 -22.5 28.5t-34.5 11.5h-1h-4q-17 0 -33 -11t-22 -27q-4 -9 -7 -16q-18 -44 -49 -123
q-5 -17 -21 -29.5t-34 -12.5q-2 0 -5 1h-258h-3q-32 0 -54 22t-22 53v2v445v3q0 31 22 53t53 22h5h433zM731 323h2q46 0 78 32t32 78v1q0 46 -32.5 78.5t-78.5 32.5v0q-46 0 -78.5 -32t-32.5 -78v-2q0 -45 32 -77.5t78 -32.5zM294 323h2q45 0 77.5 32t32.5 78v2
q-1 46 -33.5 78t-77.5 32h-1q-46 0 -78.5 -32.5t-32.5 -78.5v-1q0 -46 32.5 -78t77.5 -32h1z" />
    <glyph glyph-name="i" unicode="i" 
d="M0 345q2 8 6.5 34t7.5 40q45 242 48 256q10 50 53 85t93 36h53h52q16 0 27 -11q35 -30 50 -43q6 -5 14 -5h205q8 0 14 5q21 18 49 43q13 11 30 11h1h96h2q55 0 100 -38.5t53 -92.5q10 -53 28.5 -155t27.5 -149q3 -17 3 -34q0 -65 -45.5 -116t-110.5 -58q-11 -1 -23 -1
q-36 0 -77 20.5t-62 50.5q-8 10 -27 35t-30 38q-5 6 -13 6q-38 1 -117 1h-119h-1q-9 0 -13 -7q-60 -76 -71 -88q-21 -24 -58.5 -40.5t-69.5 -16.5q-44 0 -89.5 28t-66.5 68q-12 31 -20 63v35zM879 519v1q0 46 -33 79t-79 33h-1q-46 0 -79 -33t-33 -80q0 -46 33 -79t80 -33
q46 0 79 33t33 79v0zM228 549h-44q-9 0 -17 -6.5t-11 -14.5q-1 -4 -1 -9q0 -12 8.5 -20.5t21.5 -8.5h43v-42v-1q0 -12 8 -20.5t20 -8.5h2q12 0 20.5 8.5t8.5 20.5v42q2 0 3 1h36q10 0 19 4q15 9 15 25q0 4 -1 7q-2 9 -10 16t-17 7h-44q-1 1 -1 3v37v3q0 12 -9 21t-21 9
t-21 -9t-9 -21q0 -2 1 -3v-21v-19zM819 519q0 -22 -15.5 -37.5t-37.5 -15.5t-37.5 16t-15.5 37q0 22 15.5 37.5t37.5 15.5h1q21 0 36.5 -15.5t15.5 -36.5v-1z" />
    <glyph glyph-name="j" unicode="j" 
d="M966 259q-2 -12 -11 -25t-19 -20q-15 -10 -32 -10q-14 0 -26 6t-64 36q-99 56 -100 57q-9 4 -9 13v1q1 114 0 227v2q0 9 9 12q118 68 150 88q17 11 38 11q22 0 41 -15.5t23 -37.5q0 -1 1 -2zM327 714h216h4q36 0 66 -24.5t37 -58.5q2 -13 2 -25v-2q1 -174 0 -348v-4
q0 -36 -25.5 -67t-61.5 -37q-7 -1 -14 -1h-1h-138.5h-170h-139.5q-34 0 -63 24t-36 58q-3 13 -3 26v2v347v5q0 43 31 74t75 31h4h217z" />
    <glyph glyph-name="k" unicode="k" 
d="M1023 826q-8 -50 -9 -54q-16 -73 -50 -141q-34 -67 -94 -154t-111 -142q-8 -8 -8 -20q0 -4 1 -7q8 -35 13 -58q2 -8 2 -16q0 -27 -19 -46q-121 -122 -242 -242q-2 -3 -4 -4q-9 -8 -17 -5.5t-10 14.5q-1 6 -6 38q-3 18 -10 63.5t-11 69.5q-2 8 -2 15q0 29 18 51q5 5 5 11
q0 7 -6 11q-95 95 -189 190q-4 5 -11 5q-6 0 -10 -4q-23 -19 -53 -19q-8 0 -17 2q-16 3 -161 26q-4 0 -8 1q-25 7 -9 27q4 4 7 8q117 117 235 234q8 10 23.5 16.5t28.5 6.5q10 0 19 -3l27 -6t27 -7q5 -1 10 -1q15 0 26 11q76 69 161 127q40 28 101 60t106 49q49 19 102 25
l6 2h36q9 -2 10 -3q28 -2 53 -24t32 -49q1 -2 7 -38zM877 704v1q0 43 -30.5 74t-74.5 31h-1q-44 0 -75 -31t-31 -75t31 -75t75 -31h1q44 0 75 31t31 75h-1zM101 47q4 18 9 36q15 47 47 108t62 99q4 5 11.5 13.5t9.5 10.5q4 5 10 5t10 -4t9 -8l106 -106q4 -5 6 -6
q6 -9 6 -13.5t-8 -12.5q-24 -23 -63.5 -48t-71.5 -36q-10 -4 -126 -54q-10 -5 -13.5 -2t-3.5 18z" />
    <glyph glyph-name="l" unicode="l" 
d="M0 35q4 10 11.5 14.5t15.5 5t17.5 1t17.5 0.5v297q0 18 8.5 26t29.5 8h108q34 0 34 -32v-287v-12h60v10v179q0 32 35 32h109q36 0 36 -33v-178v-10h60v405q0 19 8.5 27t29.5 8h106q36 0 36 -33v-396v-11h60v569q0 19 8.5 27t29.5 8h105q37 0 37 -33v-560v-12
q8 1 17.5 0.5t17.5 -1t15.5 -5.5t11.5 -14v-14l-22 -20h-980l-22 20v14zM882 960q28 -5 49 -23q13 -10 22 -29.5t9 -35.5q0 -13 -4 -25q-5 -24 -26.5 -43.5t-46.5 -22.5q-7 -1 -14 -1q-23 0 -43 12q-3 1 -5 1q-3 0 -6 -2q-48 -35 -95 -71q-3 -3 -3 -8v-1q3 -11 3 -21
q0 -35 -25 -61.5t-60 -27.5q-19 0 -37 5q-2 1 -4 1q-5 0 -8 -3l-110 -110q-4 -3 -4 -8q0 -3 2 -5q6 -15 6 -32q0 -27 -19 -52.5t-46 -32.5q-13 -4 -25 -4q-30 0 -55.5 20.5t-32.5 49.5q-2 7 -2 15v5q2 11 -10 17q-28 13 -71 35q-2 2 -6 2t-7 -3q-10 -9 -26.5 -15t-29.5 -6
q-19 0 -36 8q-22 9 -37.5 32t-16.5 46v3q0 25 16 49.5t39 34.5q17 6 34 6t36.5 -8.5t30.5 -20.5q10 -11 17 -29t7 -33v-3q0 -6 5 -9q38 -20 76 -38q3 -1 5 -1q3 0 7 2q10 8 26.5 14t30.5 6q17 0 33 -6h3q4 0 7 2q56 55 111 111q2 4 2 8v3q-6 16 -6 32t8.5 35.5t20.5 30.5
q11 10 28.5 17t32.5 7q23 0 44 -11q2 -1 5 -1t6 2q47 34 94 70q4 3 4 8v1q-3 11 -3 22q0 32 22.5 58t54.5 30q2 1 3 1z" />
    <glyph glyph-name="m" unicode="m" 
d="M0 482v56q2 8 2 10q8 54 8 57q21 96 87 178t160 129.5t192 47.5q45 0 89 -9q98 -19 181.5 -85t132 -160.5t48.5 -195.5q0 -48 -10 -95q-20 -92 -83 -172t-152.5 -129t-183.5 -53q-12 -1 -25 -1q-54 0 -125.5 21.5t-116.5 52.5q-44 28 -86 77.5t-71.5 107t-38.5 109.5
q-1 2 -8 54zM449.5 340q103.5 0 177 73.5t73.5 176.5t-73.5 176.5t-176.5 73.5t-176.5 -73.5t-73.5 -176.5t73 -176.5t176.5 -73.5zM986 -64q-3 2 -11.5 8.5t-12.5 10.5q-54 54 -108 109q-10 8 -10 22q0 10 6.5 18.5t15.5 10.5q4 1 8 1q13 0 21 -9l119 -119q10 -9 10 -22
q0 -8 -5.5 -16t-12.5 -11q-1 -1 -4 -3h-16zM806 -64q-2 2 -11 8.5t-13 10.5q-34 34 -68 69q-10 9 -10 22q0 10 7 18.5t16 10.5q4 1 8 1q12 0 20 -8l80 -81q9 -9 9 -21q0 -8 -5 -16t-12 -11l-5 -3h-16zM992 114q-11 5 -20 12q-25 24 -78 78q-10 9 -10 22t9 21q8 9 21 9
t22 -10q39 -38 78 -78q10 -9 10 -21q0 -7 -3 -13q-4 -7 -12 -13t-17 -7zM640 590q0 -79 -56 -134.5t-134 -55.5h-1q-78 0 -133.5 56t-55.5 134v1q0 78 56 133.5t134 55.5q79 0 134.5 -56t55.5 -134zM518 590q9 11 15.5 28.5t6.5 31.5q0 16 -8.5 35t-19.5 30t-29 18t-33 7
q-32 0 -56 -20q-11 -8 -20.5 -23.5t-11.5 -29.5q-2 -8 -2 -17q0 -14 6.5 -31.5t15.5 -28.5q-9 -10 -15.5 -27.5t-6.5 -31.5q0 -17 9 -37.5t22 -31.5q10 -9 27.5 -15.5t31.5 -6.5t31 6.5t28 15.5q13 12 22 32t9 37q0 14 -6.5 31.5t-15.5 27.5zM480 650q0 -12 -8.5 -21
t-20.5 -9h-1q-12 0 -21 9t-9 21t9 21t21 9t21 -8.5t9 -21.5zM449 500q-12 0 -20.5 9t-8.5 21v1q0 12 9 20.5t21 8.5h1q12 -1 20.5 -10t8.5 -20v-1q-1 -12 -10 -20.5t-21 -8.5z" />
    <glyph glyph-name="n" unicode="n" 
d="M0 534q7 29 25 52l230 336q13 22 37 33q12 5 24 5t25.5 -6t21.5 -15q8 -8 14 -17q118 -172 236 -345q14 -18 18 -40q1 -5 1 -9q0 -14 -10 -25.5t-24 -13.5q-13 -3 -25 -3h-1h-512h-1q-14 0 -27 4q-4 0 -7.5 2t-7 4.5t-6 5.5l-5 6t-4 7t-2.5 7v12zM789 362q-7 -29 -25 -52
q-114 -168 -229 -336q-14 -22 -37 -33q-12 -5 -25 -5q-12 0 -25.5 6t-21.5 15q-7 8 -13 17q-118 172 -236 345q-14 18 -18 41q-1 4 -1 8q0 14 9.5 25.5t23.5 13.5q13 3 26 3h513q14 0 28 -3q11 -3 20 -12.5t11 -20.5v-12z" />
    <glyph glyph-name="o" unicode="o" 
d="M1018 699q6 -11 6 -24q0 -21 -15 -35l-194 -228q-134 -156 -267 -312q-6 -8 -17 -14t-21 -6t-21 5.5t-16 13.5q-216 254 -430 508q-3 3 -43 57v20q10 19 10 20q19 29 69.5 108t77.5 122q7 11 20 18.5t25 7.5h3h655h3q14 0 28 -9.5t19 -22.5q53 -115 108 -229zM404 643v0
q48 35 104 56q-11 7 -23 12q-32 12 -63 29q-24 20 -44.5 55t-26.5 65h-7l-10 -26q-13 -31 -29 -60q-15 -20 -43 -38.5t-53 -24.5q-4 -2 -13 -6t-10 -4v-5q23 -7 54 -22.5t50 -30.5q37 -48 57 -106q20 58 57 106z" />
    <glyph glyph-name="p" unicode="p" 
d="M838 914v-483v-40h-75q14 -49 14 -101v-3q-2 -94 -51 -174.5t-130.5 -127t-176.5 -46.5q-97 0 -179.5 48t-130.5 130.5t-48 179.5q0 48 13 94h-74v34v483v5q0 11 1 22q1 10 8.5 17.5t17.5 7.5h1h18h745q32 0 39.5 -7.5t7.5 -38.5zM782 753l-67 -46v-82l67 24v104z
M781 780v90l-65 -64v-70zM743 905h-119l-31 -68h81zM616 518q-1 4 -3 8q-8 18 -25 31q-13 10 -27 18q-23 12 -47 19q-18 7 -36 7q-19 0 -37 -7q-2 -2 -4 -3l9 -65l1 -8l47 -20l55 -23l11 7zM252 692h-80v-69h80v69zM172 719h80v70h-80v-70zM238 498l-1 -10l15 -6l27 -10
l44 -18l32 22l26 18v3h6l27 18l-2 11l-10 62q-9 3 -17 6q-15 4 -30.5 4t-30.5 -4q-24 -7 -45 -21q-13 -9 -27 -20l-8 -6l-3 -21zM668 691h-79v-69h79v69zM589 719l79 1v70h-79v-71zM561 623v68h-77v-45q40 -7 77 -23zM458 719v71h-76v-71h76zM458 691h-77v-41q20 2 40 2h2
q17 0 35 -2v41zM494 904l-8 -68h82l30 68h-104zM484 790l-1 -72h78v72h-77zM469 903h-100l8 -66h85zM355 646v46h-75v-69q36 16 75 23zM355 718v72h-76v-72h76zM345 904h-104l31 -67h81zM215 904h-123l64 -67h90zM56 869v-88l70 -47v64zM56 753v-104l69 -24v81zM56 624v-94
l69 -4v74zM57 433h32q15 34 36 65v4l-68 3v-72zM142 292l85 -44l91 66l-6 77q-2 21 -3 33l-21 8l-9 4l-27 10l-29 11l-31 -25l-50 -37v-103zM210 58q26 -23 68.5 -44t76.5 -27l-8 49l-101 45zM361 67l91 61q-1 18 -4 54.5t-4 55.5l-106 49l-91 -66l13 -110zM485 131l87 -33
l80 62v103l-84 44l-91 -66zM591 30v1q24 15 51.5 42.5t41.5 51.5q-13 4 -39 -12.5t-54 -45.5v-37zM730 346q-8 33 -11 45q-5 20 -20 44.5t-32 37.5q-14 11 -32 18l-46 -31l-21 -13l7 -56l7 -53l87 -46zM782 432v74l-65 -5v-9q19 -28 32 -60h33zM783 531v93l-68 -24v-75z" />
    <glyph glyph-name="q" unicode="q" 
d="M0 450q0 10 1.5 12t9.5 0q125 -31 251 -62q11 -2 19 -11t8 -20q22 -153 43 -306l0.5 -2.5t0.5 -3.5q0 -5 -2 -6.5t-6 -0.5q-19 4 -38 11l-190 82q-15 6 -27.5 22.5t-15.5 32.5q-25 114 -49 229q-3 12 -5 23zM193 249q-1 15 -11.5 29t-24.5 19q-3 1 -6 1q-7 0 -11.5 -4.5
t-4.5 -10.5v-2q1 -15 11.5 -29t23.5 -20q3 -1 7 -1q7 0 11.5 4.5t4.5 11.5v2zM195 350q2 -15 12.5 -29.5t24.5 -20.5q3 -2 6 -2q6 0 10.5 4.5t4.5 10.5q0 1 -1 2q-1 15 -12 29.5t-25 20.5q-3 1 -5 1q-6 0 -10.5 -4.5t-4.5 -10.5v-1zM44 402q1 -15 11.5 -29t23.5 -20
q3 -2 7 -2q6 0 10 4.5t4 10.5v2q-1 14 -11 28.5t-24 20.5q-3 2 -7 2q-6 0 -10 -4.5t-4 -10.5v-2zM137 187q-1 14 -10.5 28t-22.5 20q-10 4 -16.5 -0.5t-5.5 -15.5q1 -14 11 -28t22 -19q10 -4 16 0.5t6 14.5zM286 127q-1 14 -11 28t-22 19q-3 2 -7 2q-6 0 -10.5 -4.5
t-4.5 -10.5v-2q2 -14 11.5 -27.5t21.5 -19.5q10 -4 16 0.5t6 14.5zM604 402l7 16q92 202 124 274q3 9 12.5 15.5t19.5 6.5h1q18 0 252 -1q1 0 3 -1v-6q0 -9 -5 -15l-112 -204q-14 -26 -14 -27q-5 -11 -17.5 -19.5t-24.5 -9.5q-115 -16 -229 -30h-3q-7 0 -14 1zM802 534
q16 2 30.5 13.5t19.5 26.5q1 3 1 6q0 7 -5.5 12.5t-13.5 5.5h-1q-16 -2 -30.5 -13.5t-19.5 -26.5q-1 -3 -1 -6q0 -7 5.5 -12.5t13.5 -5.5h1zM763 613q16 1 30 12.5t19 25.5q1 3 1 6q0 8 -5.5 13t-13.5 5h-3q-15 -2 -28.5 -13t-18.5 -25q-1 -3 -1 -7q0 -7 5.5 -12.5
t12.5 -5.5q1 0 2 1zM951 679q-14 -1 -28 -12t-19 -25q-1 -3 -1 -6q0 -7 5 -12t12 -5h3q15 2 28.5 13t17.5 24q2 3 2 6q0 8 -5.5 13t-12.5 5q-1 0 -2 -1zM838 461q15 1 28.5 12t17.5 25q1 3 1 5q0 7 -5 12t-12 5h-3q-14 -1 -27 -11.5t-18 -24.5q-1 -3 -1 -6q0 -7 5 -12t13 -5
h1zM711 507q-15 -1 -28.5 -12.5t-17.5 -25.5q-1 -2 -1 -4q0 -7 5 -12t12 -5q15 1 29 12t18 26q1 2 1 4q0 7 -5 12t-12 5h-1zM525 940q3 -5 6 -9q87 -93 174 -185q13 -11 13 -27q0 -9 -5 -18l-123 -264q0 -1 -5 -9q-6 93 -7 99q-1 28 -21.5 50.5t-47.5 26.5q-56 11 -74 15
q-9 1 -11 9q-7 14 -7 29q0 13 5 26q44 118 88 235q5 11 11 21zM578 681q-1 20 -13 35q-4 7 -12 7q-10 0 -14 -8q-8 -13 -8 -28q0 -19 12 -34q4 -6 12 -6q9 0 13 8q7 13 10 26zM661 700v3q0 20 -12 37q-4 6 -12 6t-12 -7q-8 -13 -8 -29q0 -20 12 -35q4 -6 11 -6q9 0 13 8
q5 11 8 23zM449 662q5 -16 13 -31q5 -8 12 -8t12 8q8 13 8 29q0 18 -11 33q-3 6 -11 6t-12 -7q-7 -14 -11 -30zM360 56q-5 32 -8 51q-38 262 -38 264q-1 4 -1 7q0 9 5.5 18t12.5 13l166 105l50 31q3 -11 5 -23q3 -34 8 -115q5 -76 11 -152v-3q0 -19 -14 -33q-10 -10 -21 -19
q-78 -66 -157 -132q-9 -7 -19 -12zM413 270q0 4 -1 6q-2 18 -13 22q-3 1 -6 1q-12 0 -18 -10q-16 -16 -16 -38q0 -6 1 -12q1 -7 6.5 -12.5t12.5 -5.5q10 0 15 8q18 16 19 41zM349 344v-6q3 -18 14 -22q3 -1 6 -1q11 0 18 10q15 16 15 38q0 6 -1 12q-1 7 -6.5 12t-12.5 5
q-8 0 -14 -7q-18 -16 -19 -41zM539 362q0 4 -1 7q0 14 -12 20q-3 1 -6 1q-10 0 -16 -8q-17 -16 -17 -39q0 -5 1 -9q3 -15 13 -18t21 7q16 16 17 39zM481 436q0 -23 12 -28q3 -1 5 -1q15 0 22 14q12 15 12 33q0 5 -1 9q0 8 -5.5 13t-12.5 5q-9 0 -14 -6q-17 -16 -18 -39z
M546 271q0 24 -13 29q-2 1 -5 1q-15 0 -22 -14q-10 -14 -10 -31v-10q1 -7 6 -12t12 -5q9 0 14 6q17 14 18 36zM422 179q0 4 -1 6v1q0 14 -13 19q-2 1 -5 1q-10 0 -16 -9q-15 -15 -15 -37v-7v-1q0 -7 5.5 -12.5t13.5 -5.5q10 0 15 8q16 16 16 37zM545 959q13 1 25 1h13
q56 -6 155 -16q46 -5 68 -9q28 -5 49 -26q20 -19 150 -144q13 -10 14 -26h-12h-235q-12 1 -25 7t-21 14q-88 93 -175 185q-4 5 -7 10zM809 825q2 1 6.5 3t7 3.5t2.5 4.5q3 7 -8 16q-19 17 -45 17h-5q-8 -1 -13 -8q-3 -5 5 -13q21 -20 50 -23zM9 493q14 11 28 20l188 94
q25 14 53 14q12 0 25 -3q23 -5 198 -39q16 -2 26 -15q-7 -4 -8 -5l-200 -128q-15 -9 -33 -9q-8 0 -17 2q-60 15 -247 61q-6 2 -11 5zM247 560h3q25 0 46 15q13 12 -2 19q-10 3 -20 3q-26 0 -46 -17q-9 -11 3 -17q8 -2 16 -3zM270 455h1q24 0 44 15q6 4 6 12q-3 7 -10 9
q-8 2 -17 2q-20 0 -37 -11q-9 -6 -10 -15q0 -8 15 -11q5 -1 8 -1z" />
    <glyph glyph-name="r" unicode="r" 
d="M153 960q12 -4 20.5 -16t8.5 -25v-3q0 -3 4 -43l-182 -18q-4 32 -4 64v2q2 12 12 20.5t22 8.5l91 8l6 2h22zM887 960l49 -6q9 -1 27 -2.5t21 -1.5q15 -1 25.5 -11.5t10.5 -25.5q0 -1 -1 -3v-13q-3 -21 -5 -41l-182 17q7 56 9 64q1 6 5.5 10.5t7.5 6t11 6.5h22zM444 639
q-3 -23 13 -26q2 -1 4 -1q10 0 15 9q2 1 2 4q3 15 12 19t25 3q96 -2 177 -69t101 -160q8 -32 8 -65q0 -39 -17 -89.5t-41 -81.5q-5 -4 -11 -4q-9 0 -18 2h-4q-7 0 -12.5 -5t-5.5 -13q0 -13 12 -17l5 -2q-29 -24 -35 -28q-3 -2 -6 -2q-2 0 -4 1q-92 24 -172 106.5t-100 175.5
q-11 43 -11 88q0 29 7.5 68t17.5 66q3 14 18 16q2 0 20 5zM557 256q-3 7 -7 13q-21 27 -43 53q-5 7 -13 7q-6 0 -11 -4q-8 -5 -8 -14q0 -5 3 -9q26 -34 47 -58q6 -3 12 -3q4 0 7 1q2 1 4.5 3t4.5 5.5t4 5.5zM444 451h-1q-8 0 -13 -5t-5 -12q0 -2 1 -4q8 -32 21 -69
q4 -10 15 -10q4 0 7 1q12 4 12 17q0 2 -1 5q-9 32 -19 64q-4 12 -17 12v1zM418 517v-18q0 -6 4.5 -11t10.5 -5q2 -1 3 -1q13 0 17 12q2 6 2 12q0 4 1.5 23.5t3.5 30.5q2 21 -14 24q-8 2 -14.5 -3t-7.5 -15q-2 -10 -4 -28t-2 -21zM645 164h1q14 0 18 14q1 2 1 5q0 12 -11 17
q-47 25 -54 29q-5 3 -11 3q-10 0 -15 -8q-3 -4 -3 -10q0 -11 10 -16q13 -7 56 -31q4 -2 9 -3h-1zM830 836l181 -17q-2 -25 -7 -72q-9 -102 -19 -204l-19 -202q-10 -100 -19 -200l-18 -186v-1q0 -7 -5 -12.5t-13 -5.5h-2h-142h-3q-7 0 -12.5 5.5t-5.5 12.5q0 2 1 4q2 24 6 68
t5 52q4 48 6 65q1 7 6 13q28 36 48 94.5t20 104.5q0 33 -10.5 76t-25.5 72q-3 6 -3 13v1q3 33 6.5 70t8 81.5t6.5 70.5q4 38 10 97zM8 819l181 17l6 -60q11 -113 21 -227q2 -20 3 -22v-7q0 -12 -5 -23q-14 -28 -23.5 -69.5t-9.5 -72.5q0 -46 19.5 -104t47.5 -94q5 -7 6 -14
q5 -50 18 -182q2 -25 -23 -25h-135q-14 0 -19 4.5t-6 18.5q-5 49 -13.5 139.5t-11.5 125.5q-5 46 -13 134.5t-12 130.5q-12 122 -23 244q-3 25 -8 86zM363 606q-18 -59 -18 -121q0 -123 81.5 -239t196.5 -158v-3q-45 -12 -59 -16q-5 0 -9 3q-5 2 -15 7q-13 7 -20.5 4
t-12.5 -18q-119 0 -204 85t-85 205q0 44 20 98.5t49 88.5q29 -12 32 17q1 8 3.5 14t8 11.5t9 8t12 7t11.5 6.5zM273 452h-1q6 -57 7 -63t6 -10.5t11 -4.5h4q6 1 10.5 6.5t4.5 11.5v1l-6 82q0 7 -5.5 12.5t-12.5 5.5t-12.5 -5.5t-5.5 -12.5v-1q-1 -7 0 -22zM372 236l-2 2
q-1 3 -1 6q-30 64 -36 76q-5 10 -16 10q-2 0 -5 -1q-13 -3 -13 -16q0 -2 1 -4q17 -40 38 -83q4 -7 12 -7q5 0 8 2q8 6 14 15zM478 111q-3 7 -8 14q-29 29 -59 58q-5 5 -12 5t-12 -5q-6 -5 -6 -13q0 -6 4 -11q34 -36 62 -61q5 -3 11 -3q4 0 8 2q2 1 12 14zM600 829v-158
q-45 13 -90 13q-47 0 -92 -13v158h182zM419 40q44 -13 90.5 -13t90.5 13v-87q0 -7 -5 -12t-12 -5h-1h-145q-17 0 -18 14v90zM419 867v59q2 13 12 22t23 9h2q55 0 110 -1q14 0 24 -10t11 -23v-11v-45h-182z" />
    <glyph glyph-name="s" unicode="s" 
d="M1024 80q-4 -9 -14.5 -15.5t-20.5 -6.5h-5h-764q-21 0 -29.5 8.5t-8.5 29.5v82h12h612h3q18 0 39 9t34 21q36 36 75 94t59 104q1 2 8 17v-343zM1024 780h-841q-1 3 -1 7v81v2q0 12 8.5 21t21.5 9h2h136h12v28v2q0 12 9 21t21.5 9t21 -9t8.5 -21v-2v-28h150v28v2
q0 13 9 21.5t21 8.5t21 -8.5t9 -21.5v-1v-29h152v28v2q0 12 8.5 21t21 9t21.5 -9t9 -21v-2v-28h11h129h6q10 0 20 -6.5t14 -15.5v-98zM1023 719q-1 -43 -10.5 -101.5t-20.5 -99.5q-17 -59 -56.5 -132t-79.5 -118l-1 -1q-9 -12 -26.5 -20.5t-32.5 -8.5h-6q-189 1 -754 1
q-2 -1 -4 -1q-18 0 -28 16q-4 7 -4 15q0 13 10 21q53 55 99.5 147t58.5 167q2 10 12 106l1 9h842z" />
    <glyph glyph-name="t" unicode="t" 
d="M1019 446v-40v-5q0 -14 -5 -27q-2 -3 -1 -14.5t-5 -14.5q-4 -44 -24 -84q-13 -35 -31 -67q-21 -40 -51 -73q-34 -39 -75 -72q-39 -31 -83 -55q-53 -29 -112 -41q-8 -2 -31 -6t-36 -6q-25 -5 -52 -5q-8 0 -17 1q-33 1 -79 9.5t-77 19.5q-54 20 -118 64.5t-102 87.5
q-21 25 -45 63.5t-36 68.5q-19 45 -27 92q-9 39 -11 78q-1 18 -1 36q0 23 2 47q9 71 36 137q29 68 75 126q34 42 76 77q24 19 62 41.5t67 34.5q49 21 102 30q25 1 49 5.5t49 5.5q8 1 21.5 -3t19.5 -4q19 -1 38 -4q37 -5 72 -18q31 -11 72 -32t68 -40q45 -32 94 -91.5
t72 -110.5q21 -49 33 -101q11 -47 11 -95v-15zM510 703h-10q-14 0 -28 -3q-7 -3 -20 -4.5t-19 -4.5q-32 -10 -60 -27q-33 -24 -61 -55q-22 -25 -36 -56q-20 -54 -20 -111q0 -30 5 -59q9 -35 35 -75t54 -62q30 -23 78.5 -40t86.5 -18q18 0 35 5q20 3 39 8q33 11 71 38.5
t58.5 56t34.5 73t14 79.5v2q-2 29 -13.5 67.5t-25.5 64.5q-16 24 -45 51t-55 41q-23 12 -57 20.5t-60 8.5h-1zM820 722l-76 -76q1 -4 3 -7q26 -38 46 -80q6 -9 8 -20q11 -34 13 -70h108q-1 60 -30.5 134t-71.5 119zM707 215q-20 -17 -53 -35t-59 -26q-30 -9 -61 -13v-107h10
q28 0 66 8.5t63 21.5q27 10 59.5 32t51.5 43zM487 142q-28 2 -55 10q-30 7 -58 21q-29 11 -52 33q-1 1 -14 6l-35.5 -35.5t-39.5 -41.5q45 -40 119 -70t134 -32zM487 862q-30 -1 -69.5 -10.5t-66.5 -20.5q-27 -10 -60 -31.5t-54 -41.5l78 -77q30 26 80.5 46t91.5 22v113z
M814 421q-3 -40 -23.5 -89.5t-46.5 -80.5l79 -79q38 44 68.5 117.5t34.5 131.5h-112zM92 474h114q3 40 23.5 91t47.5 82l-36 36l-38 38q-22 -20 -44.5 -53t-32.5 -61q-27 -64 -34 -134v1zM94 421q4 -39 5 -50v-3q5 -6 7 -20t4 -18q3 -6 7.5 -19.5t7.5 -20.5q2 -5 8.5 -16.5
t9.5 -18.5q20 -45 53 -82l80 80q-32 34 -48 77q-21 39 -21 84v7h-113zM534 863v-110q25 -4 30 -5q7 0 13 -2q30 -8 68 -27t62 -39l77 78q-44 39 -117.5 70t-132.5 35zM540 388q-17 -7 -36 -7q-12 0 -24 3l-27 -27q1 -4 1 -7q0 -11 -7 -21t-17 -13q-10 -2 -14.5 -3t-11.5 3.5
t-10 7t-10 9.5v34q6 9 17.5 15t21.5 6q2 0 4 -1l21 23q-4 17 -6 35q1 17 5 33l-28 28l-27 8q-8 13 -8 28q0 16 8 29l39 7l21 -25v-22l24 -24q16 7 33.5 7t33.5 -7l21 24l3 -3v28l20 20h27l14 -7q8 -12 8 -27t-9 -28l-31 -9l-24 -24q5 -18 6 -37q-2 -17 -7 -33l25 -23h2
q10 0 21 -6t16 -14v-34q-21 -22 -36.5 -21t-30.5 26v23zM719 719h-29q-9 2 -13.5 6.5t-8 15t-4.5 12.5q1 2 5 13t8 15.5t13 6.5h29q8 -5 14 -15t6 -19.5t-6 -19.5t-14 -15z" />
    <glyph glyph-name="u" unicode="u" 
d="M589 750l14 -176q-1 -32 -24 -54.5t-55 -22.5h-2h-91q26 14 44 40.5t25 55t10.5 55t2.5 43.5v17h-295q-1 -7 -1.5 -18t1.5 -41.5t9.5 -56.5t26.5 -53.5t49 -41.5h-95h-2q-32 0 -55.5 22.5t-24.5 54.5l14 176h1q5 87 70.5 148.5t153 61.5t153 -61.5t70.5 -148.5h1z
M509 471l197 -133q10 -7 17 -19.5t7 -24.5v-225q0 -20 -13 -35l-70 -80q-16 -18 -40 -18h-485q-24 0 -39 18l-70 80q-13 15 -13 35v225q0 12 7 24.5t16 19.5l198 133q13 9 29 9q5 0 9 -1q52 -12 105.5 -12t105.5 12q5 1 9 1q16 0 30 -9zM372 146q31 0 53.5 24t33.5 56.5
t17.5 75.5t7.5 70.5t0 53.5q0 6 -4.5 10.5t-10.5 4.5h-208q-7 0 -11.5 -4.5t-4.5 -10.5q0 -21 1 -43t4.5 -56.5t12.5 -64t22 -57t35.5 -43.5t51.5 -16zM379 325q-4 -3 -9 -3h-1h-9h-1q-5 0 -8 3q-11 -13 -26 -21q-10 -6 -20 -8h-6h-1q-3 0 -4 3q-3 5 -4 10q-2 14 -2 28v8
q0 13 3 24q1 6 3 11q1 5 6 5h1q6 0 12 -3q19 -7 33 -22q1 0 5 -5q1 1 3 2t5 1h10h2q4 0 8 -3q11 15 28 23q8 5 18 6q1 1 2.5 1t3.5 -1q3 0 5 -3q2 -5 3 -11q3 -15 3 -31v-9q-1 -11 -3 -21q-1 -5 -2.5 -9.5t-5.5 -4.5h-1q-6 1 -12 3q-19 6 -33 20q-1 1 -3 3.5t-3 3.5z" />
    <glyph glyph-name="v" unicode="v" 
d="M0 778q3 13 12.5 27t20.5 22q10 6 21 10q49 16 149 49l9 2v-24v-560v-5q0 -30 18 -62.5t43 -48.5q20 -12 42 -21q-32 -13 -66 -17q-23 0 -43.5 16t-26.5 38l-41 127l-132 407q-1 2 -6 19v21zM328 345q6 26 6 27q86 266 173 531q5 24 26 41t45 17q16 0 30 -6
q180 -59 359 -117q24 -5 40.5 -26t16.5 -45v-4q-1 -13 -5 -24q-86 -267 -173 -533q-6 -24 -26.5 -40.5t-44.5 -16.5q-15 0 -28 6l-361 117q-24 6 -41 27t-17 46zM702 654q-2 6 -2 8q-5 28 -29 48t-52 20q-5 0 -11 -1q-23 -3 -44.5 -21.5t-28.5 -41.5q-8 -25 -8 -51
q0 -37 16 -70q12 -30 35 -67.5t43 -61.5q4 -3 9 -3h2q58 18 77 26q25 9 56 29t50 39q15 16 26 42t11 48v3q-1 34 -25.5 57.5t-57.5 23.5q-12 0 -24 -3q-23 -10 -43 -24zM486 944q-150 -463 -180 -552q-8 -23 -8 -47q0 -21 10 -47.5t25 -41.5q18 -18 38 -33q-12 -1 -23 -1
q-32 0 -62 9q-18 9 -30.5 29.5t-12.5 40.5v5v383v175v5q0 20 12.5 39.5t30.5 27.5q14 7 30 8h170z" />
    <glyph glyph-name="w" unicode="w" 
d="M918 960q-3 -58 -22 -113q-31 -95 -123.5 -173.5t-191.5 -94.5q-35 -6 -71 -6q-124 0 -237.5 84t-149.5 203q-14 49 -17 100h142v-42q2 -11 10.5 -19t19.5 -9h10h447h10q12 1 21 10t10 21v39h142zM388 766v52v2q0 7 -5 11.5t-12 4.5h-2q-33 1 -67 0q-1 1 -2 1
q-8 0 -13 -5.5t-5 -12.5v-2v-102v-2q0 -7 5.5 -12t12.5 -5h2h66q20 0 20 20v50zM636 766v-52v-2q0 -6 4.5 -11t11.5 -5h2q34 -1 68 0h2q7 0 12 5t5 12v2q1 51 0 102q0 19 -20 19h-66q-1 1 -2 1q-7 0 -12.5 -5.5t-5.5 -12.5q0 -1 1 -2q-1 -4 -0.5 -26t0.5 -25zM565 766v50
q0 20 -21 20h-64q-21 0 -21 -20q-1 -50 0 -100q0 -20 21 -20h64q11 0 16 5t5 16q0 8 -0.5 24.5t-0.5 24.5h1zM1024 948q-8 -57 -8 -59q-5 -32 -19.5 -74.5t-29.5 -71.5q-1 0 -4 -5l-60 34q21 49 22 51q11 27 19 67.5t8 69.5h72v-12zM70 960q7 -56 7 -58q11 -65 42 -124l1 -2
t1 -3l-62 -36q-32 78 -33 80q-20 57 -24 118q-1 5 -2 9v16h70zM600 960v-35h-318v35h318zM742 960v-35h-106v35h106zM307 588q36 -19 91 -34t96 -17v-69q-49 1 -114 18.5t-108 40.5zM783 544l-35 61q34 22 74.5 62.5t62.5 74.5l61 -35q-26 -41 -74 -89t-89 -74zM530 467v70
q41 2 96 17t91 34l35 -61q-43 -23 -108 -40.5t-114 -19.5zM276 605l-35 -61q-42 26 -89.5 74t-73.5 89l61 35q22 -34 62 -74.5t75 -62.5z" />
    <glyph glyph-name="x" unicode="x" 
d="M728 720q-4 -15 -4 -31q0 -19 9 -41t21 -35q9 -12 9 -26q0 -18 -12 -31q-11 -13 -19 -33.5t-8 -37.5q0 -15 4 -29q2 -7 2 -13q0 -14 -10 -28t-23 -18q-21 -9 -38 -30.5t-21 -43.5q-3 -19 -18 -31.5t-33 -12.5h-6h-5q-20 0 -42 -11t-33 -27q-7 -11 -21 -18.5t-26 -7.5
q-17 0 -31 9q-19 10 -42 10q-22 0 -41 -10q-29 -12 -43.5 -9t-35.5 28q-12 15 -34.5 25.5t-41.5 10.5q-30 1 -41.5 10t-19.5 39q-4 19 -19.5 38t-32.5 28q-28 15 -34 28t-1 45q3 10 3 20q0 32 -19 57q-21 28 -21 43t20 42q20 26 20 59q0 10 -3 21q-5 30 1 43.5t32 27.5
q18 8 34 28t21 39q7 29 19 38.5t42 10.5h1q18 0 39.5 10t33.5 24q22 26 36 29t45 -10q19 -9 40 -9q23 0 44 11q13 8 29 8q13 0 27 -7.5t20 -18.5q11 -15 32.5 -26t39.5 -11q3 0 6.5 0.5t6.5 0.5q19 0 34 -13.5t18 -32.5q4 -22 21.5 -43.5t37.5 -30.5q14 -5 23 -19t9 -28
q0 -5 -1 -10zM657 588q0 114 -81 194.5t-194 80.5q-114 0 -195 -81t-81 -195t81 -194.5t195 -80.5t194.5 80.5t80.5 194.5v1zM656 -1q-2 1 -33.5 17.5t-47.5 24.5q-10 5 -24 13q-27 15 -34.5 10t-24.5 -47q-3 -6 -4 -9q-1 -4 -32 -72l-10 1q-7 12 -12 25q-7 26 -18 52
q-16 32 -16 68q0 17 6.5 40.5t15.5 38.5q9 16 27 19q24 1 51 15t41 33q31 38 49 -9q6 -17 30.5 -82t37.5 -101q4 -14 7 -29zM99 26q1 20 6 38q10 28 31 83.5t32 82.5q9 26 34 13q14 -7 24 -20q12 -17 35.5 -30t44.5 -13q25 0 47 12q20 6 40 10q-1 -12 -3 -23
q-40 -128 -62 -191q-5 -11 -14 -20q-2 2 -6 5.5t-7 6.5t-4 6q-16 34 -39 91q-10 25 -34 11q-27 -15 -87 -46q-3 -1 -38 -16zM254 453q8 38 11 76v1q0 21 -13 37q-9 10 -28.5 28t-27.5 26q-11 12 -11 27v3q4 12 25 19q25 9 51 9h5q23 0 42.5 16t23.5 39q9 25 22 47
q10 19 24 19.5t25 -17.5q20 -33 37 -70q3 -10 14 -18t22 -8h1q32 0 63 -8q33 -7 37 -19q4 -13 -16 -39q-7 -9 -24 -25.5t-24 -25.5q-10 -13 -10 -29v-4q2 -13 7 -40t7 -40q1 -8 -1.5 -17.5t-7.5 -12.5q-8 -4 -16 -4q-10 0 -18 5q-15 13 -40 22.5t-45 9.5q-22 0 -48 -10.5
t-42 -25.5q-19 -15 -32.5 -6t-12.5 35z" />
    <glyph glyph-name="y" unicode="y" 
d="M501 189q-11 -68 43.5 -114.5t166.5 -62.5v-76h-551v76h2q49 0 105 27.5t87 66.5q19 40 28 83q-53 -29 -110 -48q-30 -10 -62 -10q-87 0 -149.5 62.5t-62.5 150.5q0 35 12 69q9 30 29.5 70t38.5 66q52 67 111 127q37 42 79 89t93 104t81 90h-1q15 -17 126 -144.5
t169 -194.5q41 -39 79.5 -105t52.5 -121q8 -27 8 -54q0 -45 -27 -94.5t-66 -73.5q-23 -16 -61 -28t-67 -12q-27 0 -63 10.5t-59 25.5q-2 1 -32 21z" />
    <glyph glyph-name="z" unicode="z" 
d="M919 230l-223 -129q-26 -3 -38.5 3t-26.5 30l-64 110l-9 -5l-194 -112q-2 -1 -3 -2q-7 -4 -15 -6q-15 -5 -31 1.5t-24 20.5q-1 1 -1 3q-59 101 -117 201q-1 4 -3 7l251 145l-24 41l-251 -144q-1 1 -2 2.5t-2 2.5q-58 101 -116 201q-1 2 -2 3q-10 18 -5 37.5t23 29.5
q2 1 4 1l201 117l4 2q18 11 37.5 5.5t29.5 -22.5q1 -2 2 -5q31 -54 63 -108l4 -8l9 5q98 56 195 112l2 2q7 4 15 6q15 5 31.5 -1.5t24.5 -20.5l2 -4q57 -99 114 -199q1 -1 2.5 -4t1.5 -4l-292 -169l24 -41l292 169q1 -2 2.5 -3.5t1.5 -2.5q78 -134 117 -202q6 -11 7 -24
q1 -11 -4 -22.5t-13 -18.5zM259 597h-1q-6 11 -18 14t-23 -3v0q-11 -6 -14 -18.5t3 -23t18 -14t23 3t14.5 18.5t-2.5 23zM502 606.5q-11 -6.5 -14.5 -18.5t3 -23t18.5 -14.5t23 3t14.5 18.5t-3 23t-18.5 14.5t-23 -3zM407 340q-7 11 -19 14.5t-23 -2.5q-10 -7 -13.5 -19
t2.5 -23q6 -10 18 -13.5t23 2.5h1q10 6 13.5 18t-2.5 23zM636 313q6 -11 18.5 -14t23 3t14 18.5t-3.5 23.5q-6 10 -18 13t-23 -3t-14 -18t3 -23zM622 574h-1q-10 -6 -13.5 -18t2.5 -23h1q6 -11 18 -14.5t23 3t14 18.5t-3 23t-18.5 14t-22.5 -3v0zM808 311q-6 11 -18 14
t-23 -3t-14 -18t3 -23t18 -14t23 3t14 18t-3 23z" />
    <glyph glyph-name="braceleft" unicode="{" 
d="M1024 768q-20 -76 -22 -83l-130 -512q-3 -16 -16.5 -29.5t-29.5 -16.5v12v581v4q0 44 -30.5 78.5t-74.5 40.5q-8 1 -16 1h-3h-171h-13q7 30 18 59q7 13 21.5 22t28.5 9q8 0 15 -2q158 -39 316 -79q45 -12 47 -12q20 -2 37.5 -17t22.5 -34v-22zM0 642q8 26 29 44
q133 126 264 252q8 9 22 15.5t25 6.5q13 0 27 -7t22 -17q33 -34 88 -92h-12h-144h-3q-50 0 -85 -35.5t-35 -84.5v-3v-307v-12l-7 6q-129 135 -173 181q-11 15 -18 33v20zM258 418v300v5q0 25 17.5 43t42.5 18h6h376h6q25 0 42.5 -18t17.5 -43v-5v-601v-5q0 -25 -17.5 -43
t-42.5 -18q-3 0 -6 1h-377q-2 -1 -5 -1q-25 0 -42.5 18t-17.5 43v5v301zM512 510l-4 3q-22 17 -50 17q-14 0 -31.5 -7.5t-27.5 -18.5q-11 -12 -19 -32t-8 -37q0 -18 9.5 -39.5t22.5 -33.5q8 -8 85 -76q9 -11 23 -11t24 11q4 4 34.5 31t46.5 41q12 11 22.5 30t11.5 35
q1 7 1 15q0 21 -12.5 44t-31.5 35q-20 13 -44 13q-30 0 -52 -20zM430 642q0 12 -9 20.5t-21 8.5t-21 -8.5t-9 -21t9 -21.5t21 -9h1q12 1 20.5 9.5t8.5 21.5v0zM654 193q0 13 -9 21.5t-21 8.5t-21 -8.5t-9 -21t9 -21.5t21 -9t21 9t9 22v-1z" />
    <glyph glyph-name="bar" unicode="|" 
d="M722 64h-464q-36 0 -61.5 26t-25.5 62v592q0 36 25.5 62t61.5 26h288q-30 -28 -51 -77.5t-21 -90.5q0 -96 68 -164t164 -68q42 0 81 15l23 -23v-272q0 -36 -26 -62t-62 -26zM609 362q-10 0 -16 -6q-7 -7 -7 -16v-1q0 -10 6.5 -16.5t15.5 -6.5h1h38v-148v-1q0 -9 7 -15
q7 -7 16.5 -7t15.5 7q7 6 7 15v1v148h38h1q9 0 15.5 6.5t6.5 16.5v0q0 10 -6.5 16.5t-16.5 6.5h-122zM450 362h-1q-9 0 -16 -7q-6 -7 -6 -16v-171v-1q0 -9 7 -16q6 -6 15 -6h98q10 0 16.5 6.5t6.5 15.5v1q0 9 -7 16q-6 7 -16 7h-75v41h52q10 0 16 6q7 7 7 16v1q0 9 -7 16
q-6 7 -16 7h-52v38h75q10 0 16.5 6.5t6.5 16.5v1q0 9 -7 15q-6 7 -16 7h-97zM260 363q-8 -1 -14 -7q-3 -3 -4 -6q-3 -5 -3 -10v-172v-1q0 -9 7 -16q7 -6 16 -6h78q13 0 25 5t21 14q9 10 14 22q5 13 5 27q0 12 -4 24q-4 10 -12 19q8 9 12 20t4 23v1q0 13 -5 25
q-5 11 -14 19.5t-21 12.5q-12 6 -25 6h-80zM340 190h-56v48h56q8 0 14 -6q6 -8 6 -18t-6 -18q-6 -6 -14 -6v0zM340 278h-56v41h56q8 0 14 -6t6 -14v-1q0 -8 -6 -14t-14 -6v0zM906.5 431q-13.5 0 -22.5 9l-83 83q-18 -13 -46.5 -21.5t-50.5 -8.5q-70 0 -119.5 49.5t-49.5 120
t49.5 120t120 49.5t120 -49.5t49.5 -120.5q0 -21 -8 -48t-20 -45l83 -83q10 -9 10 -22.5t-9.5 -23t-23 -9.5zM704.5 767q-43.5 0 -74.5 -30.5t-31 -74t31 -74.5t74 -31q16 0 36 7.5t32 17.5q3 5 7 9q3 4 8 6q9 12 15.5 31t6.5 34q0 44 -30.5 74.5t-74 30.5z" />
    <glyph glyph-name="uni0410" unicode="&#x410;" 
d="M705 377q5 0 8.5 -3.5t3.5 -8.5v-325q0 -30 -21 -51t-51 -21h-447q-30 0 -51.5 21t-21.5 51v304l-42 -27q-3 -2 -6 -2q-7 0 -10 6l-46 71q-11 18 -11 39q0 40 34 61l69 44q-19 8 -30.5 25t-11.5 38q0 28 20 48.5t49 20.5q7 0 15 -2l111 -25l34 150q5 23 23.5 38.5
t43.5 15.5q28 0 48.5 -20t20.5 -48q0 -8 -2 -16l-5 -24l64 41q18 11 39 11q40 0 61 -33l45 -72q2 -3 2 -6q0 -7 -5 -10l-457 -291h527zM506 758l-148 -95l65 -102l189 121l-39 61q-11 17 -31 21q-5 1 -10 1q-14 0 -26 -7zM323 786l-30 -135l108 68l9 47q1 5 1 10
q0 19 -13 32t-31 13q-16 0 -28 -10t-16 -25zM338 651l-110 -70l65 -102l109 69zM102 575q10 -16 28 -20l9 -2l107 68l-97 21q-4 2 -9 2q-19 0 -32 -13.5t-13 -31.5q0 -13 7 -24zM80 344l193 122l-65 102l-152 -96q-22 -15 -22 -41q0 -14 8 -26zM313 -8v361h-164v-313
q0 -20 14.5 -34t34.5 -14h115zM466 -8v361h-129v-361h129zM693 40v313h-203v-361h155q20 0 34 14t14 34zM840 486l24 -24q4 -3 4 -8q0 -11 -11 -12l-33 -5l-15 -30q-4 -7 -11.5 -7t-10.5 7l-15 30l-33 5q-11 1 -11 12q0 5 4 8l24 24l-6 34v2q0 5 3.5 8.5t8.5 3.5q3 0 6 -2
l30 -16l30 16q3 2 6 2q5 0 8.5 -3.5t3.5 -8.5q0 -1 -1 -2zM814 460l16 2l-12 11q-3 4 -3 9v2l3 16l-14 -8q-3 -1 -6 -1t-6 1l-14 8l3 -16v-2q0 -5 -4 -9l-11 -11l16 -2q6 -1 9 -7l7 -14l7 14q3 6 9 7zM978 651q9 -2 9 -11q0 -6 -5 -10l-26 -21l3 -34v-1q0 -5 -3.5 -8.5
t-8.5 -3.5q-4 0 -7 2l-28 19l-32 -13q-2 -1 -4 -1q-5 0 -8.5 3.5t-3.5 8.5v3l9 33l-22 26q-3 3 -3 8q0 11 11 12l34 1l18 29q4 6 10 6q9 0 12 -8l12 -32zM936 624l12 10l-15 4q-6 1 -8 7l-6 15l-9 -14q-3 -5 -9 -5l-16 -1l10 -12q3 -4 3 -8v-3l-4 -16l14 6q2 1 5 1t6 -2
l14 -8l-1 16h-1q0 6 5 10zM801 846l-22 26q-3 4 -3 8q0 12 12 12l34 2l17 29q4 5 11 5q8 0 11 -7l12 -32l33 -8q9 -2 9 -12q0 -5 -4 -9l-27 -21l3 -34v-1q0 -5 -3.5 -8.5t-8.5 -3.5q-4 0 -7 2l-28 18l-32 -13h-4q-5 0 -8.5 3.5t-3.5 8.5v3zM829 870l-16 -1l11 -12q2 -3 2 -8
v-3l-4 -15l15 6q2 1 4 1q4 0 7 -2l13 -9l-1 16v1q0 6 4 9l13 10l-16 4q-6 2 -8 8l-6 14l-8 -13q-4 -6 -10 -6zM583 484q55 35 125 17q9 -2 9 -11q0 -5 -3.5 -8.5t-8.5 -3.5h-2q-20 5 -38 5t-31 -3t-25.5 -9t-20 -11.5t-14 -12.5t-8.5 -9.5t-3 -4.5q-4 -6 -10 -6
q-5 0 -8.5 3.5t-3.5 8.5q0 4 2 7q13 21 40 38zM811 611q-90 38 -161 -16q-32 -26 -52 -62q-4 -7 -11 -7q-5 0 -8.5 3.5t-3.5 8.5q0 3 1 5q23 42 60 71q81 62 184 20q8 -3 8 -11q0 -5 -3.5 -8.5t-8.5 -3.5h-5zM676 700q3 9 12 9q2 0 3 -1q7 -2 17.5 -4t35.5 -1t43 11
q31 19 40 66q2 10 12 10q5 0 8.5 -3.5t3.5 -8.5v-3q-11 -57 -52 -81q-27 -16 -64 -16q-26 0 -51 7q-8 3 -8 12v3zM518 390q-9 0 -15.5 6.5t-6.5 15.5t6.5 15t15.5 6t15 -6t6 -15t-6 -15.5t-15 -6.5zM517.5 414q-2.5 0 -2.5 -2.5t2.5 -2.5t2.5 2.5t-2.5 2.5zM688 782
q-9 0 -15.5 6.5t-6.5 15.5t6.5 15t15.5 6t15 -6t6 -15t-6 -15.5t-15 -6.5zM687.5 806q-2.5 0 -2.5 -2.5t2.5 -2.5t2.5 2.5t-2.5 2.5zM992 799q9 0 15.5 -6.5t6.5 -15.5t-6.5 -15t-15.5 -6t-15 6t-6 15t6 15.5t15 6.5zM992.5 775q2.5 0 2.5 2.5t-2.5 2.5t-2.5 -2.5t2.5 -2.5z
M509 512q0 -9 -6.5 -15.5t-15.5 -6.5t-15 6.5t-6 15.5t6 15.5t15 6.5t15.5 -6.5t6.5 -15.5zM487.5 510q2.5 0 2.5 2t-2.5 2t-2.5 -2t2.5 -2zM957 498q9 0 15 -6t6 -15t-6 -15.5t-15 -6.5t-15.5 6.5t-6.5 15.5t6.5 15t15.5 6zM956.5 474q2.5 0 2.5 2.5t-2.5 2.5t-2.5 -2.5
t2.5 -2.5z" />
    <glyph glyph-name="uni0411" unicode="&#x411;" 
d="M936 793q14 0 24 -10.5t10 -24.5v-787q0 -15 -10 -25t-24 -10h-848q-14 0 -24 10t-10 25v787q0 14 10 24.5t24 10.5h47q0 49 6.5 80.5t28.5 53.5q33 33 97 33q63 0 134 -28.5t111 -74.5q40 46 111 74.5t134 28.5q64 0 97 -33q22 -22 28.5 -53.5t6.5 -80.5h47zM901 611
v112h-264v-112h264zM456 723v-375l37 25q9 6 19 6t19 -6l37 -25v375h-112zM757 891q-63 0 -125.5 -30.5t-79.5 -67.5h268q0 70 -15 85q-13 13 -48 13zM219 878q-15 -15 -15 -85h268q-17 37 -79.5 67.5t-125.5 30.5q-35 0 -48 -13zM387 723h-264v-112h264v112zM123 5h778v537
h-264v-258q0 -21 -18 -31q-8 -4 -16 -4q-11 0 -19 6l-72 47l-72 -47q-17 -12 -35 -2t-18 31v258h-264v-537z" />
    <glyph glyph-name="uni0412" unicode="&#x412;" 
d="M778 462q7 -5 7 -14t-7 -14l-376 -256q-4 -3 -9 -3t-8 2q-10 5 -10 15v512q0 10 9.5 15t17.5 -1zM410 224l328 224l-328 224v-448zM512 960q104 0 199 -40.5t163.5 -109t109 -163.5t40.5 -199t-40.5 -199t-109 -163.5t-163.5 -109t-199 -40.5t-199 40.5t-163.5 109
t-109 163.5t-40.5 199t40.5 199t109 163.5t163.5 109t199 40.5zM512 -30q97 0 185.5 38t152.5 102t102 152.5t38 185.5t-38 185.5t-102 152.5t-152.5 102t-185.5 38t-185.5 -38t-152.5 -102t-102 -152.5t-38 -185.5t38 -185.5t102 -152.5t152.5 -102t185.5 -38z" />
    <glyph glyph-name="uni0413" unicode="&#x413;" horiz-adv-x="1182" 
d="M684 31q-21 2 -36 17t-15 35v122h-71v-122q0 -21 -15.5 -36.5t-36 -15.5t-36.5 15.5t-16 36.5v122h-33h-3q-14 0 -22.5 10t-8.5 24v348h413v-348v-3q0 -14 -10 -22.5t-24 -8.5h-34v-122q0 -21 -15.5 -36.5t-36.5 -15.5zM892.5 242q-20.5 0 -35 14.5t-17.5 37.5v241
q0 21 16 36.5t36.5 15.5t36 -15.5t15.5 -36.5v-241q0 -21 -15.5 -36.5t-36 -15.5zM302.5 242q-20.5 0 -35 14.5t-17.5 37.5v241q0 21 16 36.5t36.5 15.5t36 -15.5t15.5 -36.5v-241q0 -21 -15.5 -36.5t-36 -15.5zM764 859q11 -11 6 -27l-46 -46q15 -9 40 -34q41 -50 46 -119
v-9h-416v9q0 63 46 119q24 25 40 34l-46 46q-5 4 -5 11.5t5 12.5q14 10 24 0l46 -46l3 -3q39 22 92 22t92 -22l3 3l45 49q15 10 25 0zM510.5 682q11.5 0 19.5 8t8 19.5t-8 19.5t-19.5 8t-19.5 -8t-8 -19.5t8 -19.5t19.5 -8zM684 682v0q12 0 20 8t8 19.5t-8 19.5t-19.5 8
t-19.5 -8t-8 -19.5t8 -19.5t19 -8z" />
    <glyph glyph-name="uni0414" unicode="&#x414;" 
d="M660 754q8 24 8 48q0 8 -1 16l-1 7h-8q-32 -2 -61 -18q-30 -15 -53 -40q-22 -27 -34 -60q-8 -22 -8 -45q0 -8 1 -16l1 -6l6 -1h8q29 0 54 13q32 15 55 42q22 27 33 60zM797 558l1 1l6 4l-4 7q-24 34 -60 54q-38 21 -81 23h-3.5h-3.5q-49 0 -94 -22q-20 -9 -41 -12
q-23 3 -43 12q-38 18 -79 20q-50 -1 -92 -27q-43 -26 -68 -70q-32 -62 -32 -132q0 -23 3 -46q15 -110 76 -202q23 -36 53 -66q29 -30 71 -31q29 2 56 15q30 15 65 15q32 0 61 -15q28 -14 60 -14q41 2 70 31q28 29 50 63q34 50 52 106v1l2 7l-6 3h-1q-42 18 -67.5 56.5
t-25.5 85.5q0 42 20.5 77t54.5 56z" />
    <glyph glyph-name="uniE900" unicode="&#xe900;" 
d="M354 448l256 -256l60 60l-196 196l196 196l-60 60z" />
    <glyph glyph-name="uniE901" unicode="&#xe901;" 
d="M512 290l256 256l-60 60l-196 -196l-196 196l-60 -60z" />
    <glyph glyph-name="uniE902" unicode="&#xe902;" 
d="M725 555l-213 -214l-213 214h426z" />
    <glyph glyph-name="uniE903" unicode="&#xe903;" 
d="M299 341l213 214l213 -214h-426z" />
    <glyph glyph-name="uniE904" unicode="&#xe904;" 
d="M670 448l-256 256l-60 -60l196 -196l-196 -196l60 -60z" />
    <glyph glyph-name="uniE905" unicode="&#xe905;" 
d="M512 606l-256 -256l60 -60l196 196l196 -196l60 60z" />
    <glyph glyph-name="uniE906" unicode="&#xe906;" 
d="M811 687l-60 60l-239 -239l-239 239l-60 -60l239 -239l-239 -239l60 -60l239 239l239 -239l60 60l-239 239z" />
    <glyph glyph-name="uniE907" unicode="&#xe907;" 
d="M841 687l98 -47l-239 -98l-51 68zM350 503h316l-158 -388q0 5 -79 195.5t-79 192.5zM610 606l51 -68h-311q4 4 27.5 34.5t23.5 33.5h209zM704 512l235 90l-380 -444zM311 512l146 -358l-372 448zM623 781l188 -73l-188 -64h-235l-183 69l179 68h239zM183 691l188 -77
l-51 -68l-235 94z" />
    <glyph glyph-name="uniE908" unicode="&#xe908;" 
d="M427 192h170v85h-170v-85zM128 704v-85h768v85h-768zM256 405h512v86h-512v-86z" />
    <glyph glyph-name="uniE909" unicode="&#xe909;" 
d="M299 363h-86v-214h214v86h-128v128zM213 533h86v128h128v86h-214v-214zM725 235h-128v-86h214v214h-86v-128zM597 747v-86h128v-128h86v214h-214z" />
    <glyph glyph-name="uniE90A" unicode="&#xe90a;" 
d="M128 832h768v-768h-768v768z" />
    <glyph glyph-name="uniE90B" unicode="&#xe90b;" 
d="M128 832h341v-768h-341v768zM555 832h341v-768h-341v768v0z" />
    <glyph glyph-name="uniE90C" unicode="&#xe90c;" 
d="M128 832h341v-341h-341v341zM555 832h341v-341h-341v341v0zM128 405h341v-341h-341v341v0zM555 405h341v-341h-341v341v0z" />
    <glyph glyph-name="uniE90D" unicode="&#xe90d;" 
d="M396 75h349v0v0q24 0 43 12.5t28 32.5v0l118 264q2 6 3.5 12.5t1.5 14.5v0v0v0v75q-1 31 -23.5 52.5t-53.5 21.5h-0.5h-0.5v0h-245l37 171v12q0 11 -4.5 21.5t-12.5 17.5v0l-43 39l-252 -245q-10 -10 -16 -23.5t-6 -28.5v0v0v0v-375q1 -31 23 -52.5t53 -21.5h0.5h0.5v0v0
zM85 523h156v-448h-156v448z" />
    <glyph glyph-name="uniE90E" unicode="&#xe90e;" 
d="M396 75h349v0v0q24 0 43 12.5t28 32.5v0l118 264q2 6 3.5 12.5t1.5 14.5v0v0v0v75q-1 31 -23.5 52.5t-53.5 21.5h-0.5h-0.5v0h-245l37 171v12q0 11 -4.5 21.5t-12.5 17.5v0l-43 39l-252 -245q-10 -10 -16 -23.5t-6 -28.5v0v0v0v-375q1 -31 23 -52.5t53 -21.5h0.5h0.5v0v0
zM396 523l170 162l-54 -199h349v-75l-116 -262h-349v374zM85 523h156v-448h-156v448z" />
    <glyph glyph-name="uniE90F" unicode="&#xe90f;" 
d="M256 533q-35 0 -60 -25t-25 -60t25 -60t60 -25t60 25t25 60v0q0 35 -25 60t-60 25v0v0zM768 533q-35 0 -60 -25t-25 -60t25 -60t60 -25t60 25t25 60v0q0 35 -25 60t-60 25v0v0zM512 533q-35 0 -60 -25t-25 -60t25 -60t60 -25t60 25t25 60v0q0 35 -25 60t-60 25v0v0z" />
    <glyph glyph-name="uniE910" unicode="&#xe910;" 
d="M156 93v575h59v-515h517v-60h-576v0zM205 657v-515h516v-38h-554v555h38v-2zM226 680h-81v-597h598v80h-517v516v1zM292 228v572h572v-572h-572zM350 286h456v456h-456v-456zM853 789v-550h-550v550h550zM341 275h478v478h-478v-478zM875 811h-594v-594h594v594zM363 297
v435h435v-435h-435z" />
    <glyph glyph-name="uniE911" unicode="&#xe911;" 
d="M673 351h-33l-13 12q31 36 49 82.5t18 98.5q0 57 -22 108q-21 50 -59 88t-88 60q-51 21 -109 21q-57 0 -108 -21q-50 -22 -88 -60t-60 -88q-21 -51 -21 -108q0 -58 21 -109q22 -50 60 -88t88 -59q51 -22 108 -22q52 0 98.5 18t83.5 49h-1l12 -12v-34l213 -213l64 63z
M417 351q-80 0 -136 56.5t-56 135.5q0 80 56 136t136 56q79 0 135.5 -56t56.5 -136v0q0 -79 -56.5 -135.5t-135.5 -56.5v0v0z" />
    <glyph glyph-name="uniE912" unicode="&#xe912;" 
d="M939 544l-307 27l-120 282l-120 -283l-307 -26l233 -201l-70 -299l264 158l264 -159l-70 298z" />
    <glyph glyph-name="uniE913" unicode="&#xe913;" 
d="M939 544l-307 27l-120 282l-120 -283l-307 -26l233 -201l-70 -299l264 158l264 -159l-70 298zM512 282l-160 -97l42 182l-141 124l186 16l73 171l73 -171l187 -16l-142 -124l43 -183z" />
    <glyph glyph-name="uniE914" unicode="&#xe914;" 
d="M512 789v128l-171 -170l171 -171v128q53 0 100 -20q46 -20 81 -55t55 -81q20 -47 20 -100v0v-0.5v-0.5q0 -32 -8 -62.5t-23 -57.5l1 2l62 -63q25 39 39 85t14 97q0 71 -27 133t-73 108.5t-108 72.5q-62 27 -133 27v0v0zM512 192q-53 0 -100 20q-46 20 -81 55t-55 81
q-20 47 -20 100v0v0.5v0.5q0 32 8 62.5t23 57.5l-1 -2l-62 63q-25 -39 -39 -85t-14 -97q0 -71 27 -133t73 -108.5t108 -72.5q62 -27 133 -27v0v-128l171 170l-171 171v-128z" />
    <glyph glyph-name="uniE915" unicode="&#xe915;" 
d="M841 687l98 -47l-239 -98l-51 68zM350 503h316l-158 -388q0 5 -79 195.5t-79 192.5zM610 606l51 -68h-311q4 4 27.5 34.5t23.5 33.5h209zM704 512l235 90l-380 -444zM311 512l146 -358l-372 448zM623 781l188 -73l-188 -64h-235l-183 69l179 68h239zM183 691l188 -77
l-51 -68l-235 94z" />
    <glyph glyph-name="uni0415" unicode="&#x415;" 
d="M928 960q40 0 68 -28t28 -68v-576q0 -40 -28 -68t-68 -28h-576q-40 0 -68 28t-28 68v576q0 40 28 68t68 28h576zM352 128h416v-96q0 -40 -28 -68t-68 -28h-576q-40 0 -68 28t-28 68v576q0 40 28 68t68 28h96v-416q0 -66 47 -113t113 -47z" />
  </font>
</defs>
</svg>
